Welcome Guest ( Log In | Register )

> Releases Upload / Добавление релизов

Добавить релиз тут / Click here to add release
Рекомендованные обменники / Recommended file shares

> Fortress - Don't Spare The Wicked (2021), Heavy/Power Metal (D20)
post Nov 25 2021, 15:02:47
Post #1

Serial Uploader
Group Icon
Group: V.I.P
Posts: 38,070
Releases: 36232
From: Lithuania
On Forums: 13 years 7 months
Thanks: 443494 time(s)
Lithuania


(IMG:https://metalarea.org/images/audiocovers/2021_Nov/acov_tid358800_thumb.jpg)

*Artist: Fortress
*Album: Don't Spare The Wicked
*Year: 2021
*Genre: Heavy/Power Metal
*Country: United States (IMG:https://metalarea.org/forum/style_images/flags/United%20States.png)
*Format: mp3@CBR320kbps
*Size: 67MB

Tracklist:
01. Lost Forever 04:06
02. Devil's Wheel 03:35
03. Anguish 03:37
04. Red Light Runner 02:55
05. Find Yourself 03:37
06. Children of the Night 04:08
07. The Passage 03:31
08. Don't Spare the Wicked 03:16
******************************
Total playing time: 28:45



(IMG:https://metalarea.org/images/youtube.png)

Technical info
(IMG:https://metalarea.org/images/spectrogram/2021_Nov/98e7db697a1e9a2487c66d56c8490653.png)
Input File: 02 - Devil\'s Wheel.mp3
Channels : 2
Sample Rate : 44100
Precision : 16-bit
Duration : 00:03:35.00 = 9481500 samples = 16125 CDDA sectors
File Size : 8.77M
Bit Rate : 326k
Sample Encoding: MPEG audio (layer I, II or III)
Comments :
Title=Devil's Wheel
Artist=Fortress
Album=Don't Spare the Wicked
Tracknumber=2
Year=2021-11-26
Discnumber=1



Register


Go to the top of the page
  Insert nick Quick quote
+Quote Post
 
Start new topic
Replies (1 - 7)
post Nov 25 2021, 22:02:14
Post #2

Пять Литров
*****
Group: Металариец
Posts: 498
Releases: 0
From: германия
On Forums: 13 years 1 month
Thanks: 182 time(s)
Russian Federation


Отличный музон! Зачет ! Старая школа!


Thanks:
(1) Storky,
Go to the top of the page
  Insert nick Quick quote
+Quote Post
post Nov 26 2021, 08:57:44
Post #3

Пять Литров
*****
Group: Металариец
Posts: 498
Releases: 0
From: германия
On Forums: 13 years 1 month
Thanks: 182 time(s)
Russian Federation


Super!
Go to the top of the page
  Insert nick Quick quote
+Quote Post
post Dec 10 2021, 10:28:39
Post #4

добрый мизантроп
**************
Group: Металариец
Posts: 2,784
Releases: 1
From: Менск
On Forums: 11 years 2 months
Thanks: 1223 time(s)
Madagascar


Очень понравился когда-то такой шэдевральный хэви на харде Ambush - Desecrator (2015)
С тех пор ничего подобного не слышал, и только в последнее время начали попадаться похожие не плохие релизы.
Так вот только этот релиз я бы поставил на уровень с Ambush, очень хорошоий альбом, думаю десятка.
added: 9/10


Thanks:
Go to the top of the page
  Insert nick Quick quote
+Quote Post
post Jan 16 2022, 07:20:22
Post #5

Up From The Grave
********
Group: Металариец
Posts: 894
Releases: 122
From: Minsk
On Forums: 12 years 6 months
Thanks: 2420 time(s)
Belarus


обновите ссылку
Go to the top of the page
  Insert nick Quick quote
+Quote Post
post Jan 20 2022, 15:33:46
Post #6

добрый мизантроп
**************
Group: Металариец
Posts: 2,784
Releases: 1
From: Менск
On Forums: 11 years 2 months
Thanks: 1223 time(s)
Madagascar


Register
Go to the top of the page
  Insert nick Quick quote
+Quote Post
post Yesterday, 17:32:49
Post #7

i listen to black metal
**************
Group: Металариец
Posts: 3,169
Releases: 143
From: Москва
On Forums: 15 years 1 month
Thanks: 2407 time(s)
Russian Federation


ЦИТАТА(Storky @ Dec 10 2021, 12:28:39) *
Очень понравился когда-то такой шэдевральный хэви на харде Ambush - Desecrator (2015)
С тех пор ничего подобного не слышал, и только в последнее время начали попадаться похожие не плохие релизы.
Так вот только этот релиз я бы поставил на уровень с Ambush, очень хорошоий альбом, думаю десятка.
added: 9/10

Ambush - как раз 10/10
Fortress - 8/10

и обе команды достойны коллекции!!!!

Go to the top of the page
  Insert nick Quick quote
+Quote Post
post Yesterday, 20:38:30
Post #8

21st Century Schizoid Man
**************
Group: Металариец
Posts: 7,134
Releases: 89
From: Pdmsk
On Forums: 13 years 8 months
Thanks: 6047 time(s)
Russian Federation


ЦИТАТА(Storky @ Dec 10 2021, 12:28:39) *
Очень понравился когда-то такой шэдевральный хэви на харде Ambush - Desecrator (2015)

Это был отличный подгон. Мне вообще вся дискография понравилась. А "Крепость" не так чтобы очень.
Go to the top of the page
  Insert nick Quick quote
+Quote Post

Reply to this topicStart new topic
1 User(s) are reading this topic (1 Guests and 0 Anonymous Users)
0 Members:

 



- Lo-Fi Version Support form
Copyrights and abuse reports form
Time is now: 24th January 2022 - 20:47:08