Welcome Guest ( Log In | Register )

> Releases Upload / Добавление релизов

Добавить релиз тут / Click here to add release
Рекомендованные обменники / Recommended file shares

 
Reply to this topicStart new topic
> Hunters Moon - The Great Pandemonium (2021), Black/Thrash Metal (D4)
post Nov 25 2021, 15:10:18
Post #1

Правь статус, ####!111
**************
Group: Металариец
Posts: 28,129
Releases: 20522
From: Г.Харьков
On Forums: 9 years 6 months
Thanks: 417297 time(s)
Unknown


(IMG:https://metalarea.org/images/audiocovers/2021_Nov/acov_tid358801_thumb.jpg)

*Artist: Hunters Moon
*Album: The Great Pandemonium
*Year: 2021
*Genre: Black/Thrash Metal
*Country: Australia (IMG:https://metalarea.org/forum/style_images/flags/Australia.png)
*Format: mp3@CBR320kbps
*Size: 90MB

Tracklist:
1. Torn by Talons 04:45
2. Storm of Hail and Fire 04:49
3. Pilgrims Exile 05:00
4. Rebellion 03:44
5. Bridge over Chaos 05:20
6. Drag Them to the Coffins 04:22
7. Red Death 05:14
8. Hearse for a Barren Earth 06:18
******************************
Total playing time: 39:32



Extended info
J. Eradicator All instruments
See also: ex-Denouncement Pyre, ex-Nocturnal Graves
Lust Vocals, Lyrics
See also: Denouncement Pyre, Nocturnal Graves, Oxygen Abortion


Technical info
(IMG:https://metalarea.org/images/spectrogram/2021_Nov/6f6efc57b643ae90d6c208c590de39b0.png)
Input File: 07 - Red Death.mp3
Channels : 2
Sample Rate : 44100
Precision : 16-bit
Duration : 00:05:13.70 = 13833950 samples = 23527.1 CDDA sectors
File Size : 12.7M
Bit Rate : 323k
Sample Encoding: MPEG audio (layer I, II or III)
Comments :
Title=Red Death
Artist=HUNTERS MOON
Album=The Great Pandemonium
Tracknumber=7/8
Year=2021



Register


Go to the top of the page
  Insert nick Quick quote
+Quote Post

Reply to this topicStart new topic
2 User(s) are reading this topic (2 Guests and 0 Anonymous Users)
0 Members:

 



- Lo-Fi Version Support form
Copyrights and abuse reports form
Time is now: 27th November 2021 - 00:26:17