Welcome Guest ( Log In | Register )

> Releases Upload / Добавление релизов

Добавить релиз тут / Click here to add release
Рекомендованные обменники / Recommended file shares

> Morguiliath - Occult Sins, New Unholy Dimension (2021), Black Metal
post Nov 25 2021, 15:14:49
Post #1

Serial Uploader
Group Icon
Group: V.I.P
Posts: 38,054
Releases: 36215
From: Lithuania
On Forums: 13 years 7 months
Thanks: 443116 time(s)
Lithuania


(IMG:https://metalarea.org/images/audiocovers/2021_Nov/acov_tid358802_thumb.jpg)

*Artist: Morguiliath
*Album: Occult Sins, New Unholy Dimension
*Year: 2021
*Genre: Black Metal
*Country: France (IMG:https://metalarea.org/forum/style_images/flags/France.png)
*Format: mp3@CBR320kbps
*Size: 109MB

Tracklist:
1. Occult Sins, New Unholy Dimension 02:19
2. Pass Away 04:59
3. Blåck Peårl 05:58
4. Ad Mortem Festinamus 04:40
5. Aborted Inquisition 06:39
6. Venom and Vomit 07:27
7. Glörïa 07:44
8. Ghouls Sphere 07:54
******************************
Total playing time: 47:40



(IMG:https://metalarea.org/images/youtube.png)

Technical info
(IMG:https://metalarea.org/images/spectrogram/2021_Nov/645114e850fa83bdff354527528678bf.png)
Input File: 02-morguiliath-pass_away-e48f567e.mp3
Channels : 2
Sample Rate : 44100
Precision : 16-bit
Duration : 00:04:59.75 = 13218887 samples = 22481.1 CDDA sectors
File Size : 12.1M
Bit Rate : 324k
Sample Encoding: MPEG audio (layer I, II or III)
Comments :
Title=Pass Away
Artist=Morguiliath
Album=Occult Sins, New Unholy Dimension
Tracknumber=2/8
Year=2021
Genre=Black Metal



Register


Go to the top of the page
  Insert nick Quick quote
+Quote Post
 
Start new topic
Replies (1 - 1)
post Dec 28 2021, 20:25:18
Post #2

While Waiting the Worms
**********
Group: Металариец
Posts: 1,451
Releases: 0
On Forums: 8 years 4 weeks
Thanks: 2229 time(s)
Unknown


Ну и ccaнина.
"illustrious boss of French Black Metal" всё пытается выехать на былых заслугах.
Заставляют его продолжать этим заниматься, что ли?
Освободите Вилли!
Go to the top of the page
  Insert nick Quick quote
+Quote Post

Reply to this topicStart new topic
1 User(s) are reading this topic (1 Guests and 0 Anonymous Users)
0 Members:

 



- Lo-Fi Version Support form
Copyrights and abuse reports form
Time is now: 19th January 2022 - 17:42:16