Welcome Guest ( Log In | Register )

> Releases Upload / Добавление релизов

Добавить релиз тут / Click here to add release
Рекомендованные обменники / Recommended file shares

 
Reply to this topicStart new topic
> Krvna - Sempinfernus (2021), Black Metal
post Nov 25 2021, 15:21:43
Post #1

Serial Uploader
Group Icon
Group: V.I.P
Posts: 37,884
Releases: 36046
From: Lithuania
On Forums: 13 years 5 months
Thanks: 439348 time(s)
Lithuania


(IMG:https://metalarea.org/images/audiocovers/2021_Nov/acov_tid358803_thumb.jpg)

*Artist: Krvna
*Album: Sempinfernus
*Year: 2021
*Genre: Black Metal
*Country: Australia (IMG:https://metalarea.org/forum/style_images/flags/Australia.png)
*Format: mp3@CBR320kbps
*Size: 84MB

Tracklist:
1. From the Shades of Hades... 07:12
2. ...To the Targovistean Night 06:50
3. The Triumph of the Flesh Over the Spirit 05:33
4. Timeless... Ageless 07:14
5. The Eve of Eternal Sunset 09:14
******************************
Total playing time: 36:03



(IMG:https://metalarea.org/images/youtube.png)

Technical info
(IMG:https://metalarea.org/images/spectrogram/2021_Nov/236a2d77fa2e68b0ff569912f3ccc53b.png)
Input File: 02-krvna-to_the_targovistean_night-d59ba95e.mp3
Channels : 2
Sample Rate : 44100
Precision : 16-bit
Duration : 00:06:50.36 = 18096744 samples = 30776.8 CDDA sectors
File Size : 17.0M
Bit Rate : 331k
Sample Encoding: MPEG audio (layer I, II or III)
Comments :
Title=...To the Targovistean Night
Artist=Krvna
Album=Sempinfernus
Tracknumber=2/5
Year=2021
Genre=Black Metal



Register

Register


Go to the top of the page
  Insert nick Quick quote
+Quote Post

Reply to this topicStart new topic
2 User(s) are reading this topic (2 Guests and 0 Anonymous Users)
0 Members:

 



- Lo-Fi Version Support form
Copyrights and abuse reports form
Time is now: 27th November 2021 - 00:49:08