Welcome Guest ( Log In | Register )

> Releases Upload / Добавление релизов

Добавить релиз тут / Click here to add release
Рекомендованные обменники / Recommended file shares

> Lychlake - The Tragedy Of Doctor Faustus (2021), Symphonic Death Metal
post Yesterday, 15:45:37
Post #1

Serial Uploader
Group Icon
Group: V.I.P
Posts: 37,884
Releases: 36046
From: Lithuania
On Forums: 13 years 5 months
Thanks: 439340 time(s)
Lithuania


(IMG:https://metalarea.org/images/audiocovers/2021_Nov/acov_tid358805_thumb.jpg)

*Artist: Lychlake
*Album: The Tragedy Of Doctor Faustus
*Year: 2021
*Genre: Symphonic Death Metal
*Country: United Kingdom (IMG:https://metalarea.org/forum/style_images/flags/United%20Kingdom.png)
*Format: mp3@CBR320kbps
*Size: 160MB

Tracklist:
1. Bene Disserere Est Finis Logices 11:58
2. Consummatum Est 09:09
3. Felicity Bequeathed By The Neck Of Paramour 09:55
4. Libera Me I 03:34
5. Libera Me II 06:23
6. Penultimate Patricide 06:15
7. The Tragedy of Doctor Faustus 23:02
******************************
Total playing time: 1:10:16




Technical info
(IMG:https://metalarea.org/images/spectrogram/2021_Nov/897b896028bb40e8bbc662f413f4008e.png)
Input File: 02 - Consummatum Est.mp3
Channels : 2
Sample Rate : 44100
Precision : 16-bit
Duration : 00:09:09.33 = 24225585 samples = 41200 CDDA sectors
File Size : 22.0M
Bit Rate : 321k
Sample Encoding: MPEG audio (layer I, II or III)
Comments :
Title=Consummatum Est
Artist=Lychlake
Album=The Tragedy of Doctor Faustus
Tracknumber=2/7
Year=2021



Register


Go to the top of the page
  Insert nick Quick quote
+Quote Post
 
Start new topic
Replies (1 - 1)
post Today, 11:56:45
Post #2

Два Литра
**
Group: Завсегдатай
Posts: 122
Releases: 0
On Forums: 2 years 11 months
Thanks: 37 time(s)
Russian Federation


Весьма и весьма грамотная работа! Музыка увлекает, погружает и уносит - моё почтение! (IMG:style_emoticons/default/20.gif)


Go to the top of the page
  Insert nick Quick quote
+Quote Post

Reply to this topicStart new topic
1 User(s) are reading this topic (1 Guests and 0 Anonymous Users)
0 Members:

 



- Lo-Fi Version Support form
Copyrights and abuse reports form
Time is now: 26th November 2021 - 23:47:23