Welcome Guest ( Log In | Register )

> Releases Upload / Добавление релизов

Добавить релиз тут / Click here to add release
Рекомендованные обменники / Recommended file shares

> Lychlake - The Tragedy Of Doctor Faustus (2021), Symphonic Death Metal
post Nov 25 2021, 15:45:37
Post #1

Serial Uploader
Group Icon
Group: V.I.P
Posts: 38,070
Releases: 36232
From: Lithuania
On Forums: 13 years 7 months
Thanks: 443494 time(s)
Lithuania


(IMG:https://metalarea.org/images/audiocovers/2021_Nov/acov_tid358805_thumb.jpg)

*Artist: Lychlake
*Album: The Tragedy Of Doctor Faustus
*Year: 2021
*Genre: Symphonic Death Metal
*Country: United Kingdom (IMG:https://metalarea.org/forum/style_images/flags/United%20Kingdom.png)
*Format: mp3@CBR320kbps
*Size: 160MB

Tracklist:
1. Bene Disserere Est Finis Logices 11:58
2. Consummatum Est 09:09
3. Felicity Bequeathed By The Neck Of Paramour 09:55
4. Libera Me I 03:34
5. Libera Me II 06:23
6. Penultimate Patricide 06:15
7. The Tragedy of Doctor Faustus 23:02
******************************
Total playing time: 1:10:16




Technical info
(IMG:https://metalarea.org/images/spectrogram/2021_Nov/897b896028bb40e8bbc662f413f4008e.png)
Input File: 02 - Consummatum Est.mp3
Channels : 2
Sample Rate : 44100
Precision : 16-bit
Duration : 00:09:09.33 = 24225585 samples = 41200 CDDA sectors
File Size : 22.0M
Bit Rate : 321k
Sample Encoding: MPEG audio (layer I, II or III)
Comments :
Title=Consummatum Est
Artist=Lychlake
Album=The Tragedy of Doctor Faustus
Tracknumber=2/7
Year=2021



Register


Go to the top of the page
  Insert nick Quick quote
+Quote Post
 
Start new topic
Replies (1 - 5)
post Nov 26 2021, 11:56:45
Post #2

Два Литра
**
Group: Завсегдатай
Posts: 125
Releases: 0
On Forums: 3 years 1 month
Thanks: 39 time(s)
Russian Federation


Весьма и весьма грамотная работа! Музыка увлекает, погружает и уносит - моё почтение! (IMG:style_emoticons/default/20.gif)


Go to the top of the page
  Insert nick Quick quote
+Quote Post
post Nov 27 2021, 09:06:40
Post #3

Common dweller of hell
**************
Group: Металариец
Posts: 4,191
Releases: 12
From: Dnipro
On Forums: 13 years 6 months
Thanks: 1648 time(s)
Ukraine


Вроде и интересно, но звук подгулял, им бы хорошую студию.
Go to the top of the page
  Insert nick Quick quote
+Quote Post
post Nov 27 2021, 21:54:48
Post #4

Три Литра
***
Group: Завсегдатай
Posts: 228
Releases: 0
From: Zürich
On Forums: 7 months 1 week
Thanks: 117 time(s)
Switzerland


Даа даже хороший звук бы здесь общему горю не помог.
Рождественско-сказочный симфо метал, довольно унылый в-общем. Сказать что совсем не умеют сочинять нельзя, иногда приятные моменты проглядывают,
но все это тонет в общем болоте какого-то совершенно бездумного музицирования.
Go to the top of the page
  Insert nick Quick quote
+Quote Post
post Jan 1 2022, 02:22:55
Post #5

Два Литра
**
Group: Завсегдатай
Posts: 125
Releases: 0
On Forums: 3 years 1 month
Thanks: 39 time(s)
Russian Federation


Это настоящее сказочное музыкальное путешествие!
Go to the top of the page
  Insert nick Quick quote
+Quote Post
post Jan 1 2022, 02:27:48
Post #6

Ледоруб
**************
Group: Металариец
Posts: 29,552
Releases: 0
From: Санкт-Петербург
On Forums: 12 years 4 months
Thanks: 10603 time(s)
Russian Federation


Верю Энтони.
Go to the top of the page
  Insert nick Quick quote
+Quote Post

Reply to this topicStart new topic
1 User(s) are reading this topic (1 Guests and 0 Anonymous Users)
0 Members:

 



- Lo-Fi Version Support form
Copyrights and abuse reports form
Time is now: 24th January 2022 - 20:55:31