Welcome Guest ( Log In | Register )

> Lychlake - The Tragedy Of Doctor Faustus (2021), Symphonic Death Metal
post Nov 25 2021, 15:45:37
Post #1

Serial Uploader
Group Icon
Group: V.I.P
Posts: 38,476
Releases: 36624
From: Lithuania
On Forums: 13 years 11 months
Thanks: 452916 time(s)
Lithuania


(IMG:https://metalarea.org/images/audiocovers/2021_Nov/acov_tid358805_thumb.jpg)

*Artist: Lychlake
*Album: The Tragedy Of Doctor Faustus
*Year: 2021
*Genre: Symphonic Death Metal
*Country: United Kingdom (IMG:https://metalarea.org/forum/style_images/flags/United%20Kingdom.png)
*Format: mp3@CBR320kbps
*Size: 160MB

Tracklist:
1. Bene Disserere Est Finis Logices 11:58
2. Consummatum Est 09:09
3. Felicity Bequeathed By The Neck Of Paramour 09:55
4. Libera Me I 03:34
5. Libera Me II 06:23
6. Penultimate Patricide 06:15
7. The Tragedy of Doctor Faustus 23:02
******************************
Total playing time: 1:10:16




Technical info
(IMG:https://metalarea.org/images/spectrogram/2021_Nov/897b896028bb40e8bbc662f413f4008e.png)
Input File: 02 - Consummatum Est.mp3
Channels : 2
Sample Rate : 44100
Precision : 16-bit
Duration : 00:09:09.33 = 24225585 samples = 41200 CDDA sectors
File Size : 22.0M
Bit Rate : 321k
Sample Encoding: MPEG audio (layer I, II or III)
Comments :
Title=Consummatum Est
Artist=Lychlake
Album=The Tragedy of Doctor Faustus
Tracknumber=2/7
Year=2021



Register


Go to the top of the page
  Insert nick Quick quote
+Quote Post
 
Start new topic
Replies (1 - 6)
post Nov 26 2021, 11:56:45
Post #2

Два Литра
**
Group: Завсегдатай
Posts: 130
Releases: 0
On Forums: 3 years 5 months
Thanks: 42 time(s)
Russian Federation


Весьма и весьма грамотная работа! Музыка увлекает, погружает и уносит - моё почтение! (IMG:style_emoticons/default/20.gif)


Go to the top of the page
  Insert nick Quick quote
+Quote Post
post Nov 27 2021, 09:06:40
Post #3

Common dweller of hell
**************
Group: Металариец
Posts: 4,267
Releases: 12
From: Dnipro
On Forums: 13 years 10 months
Thanks: 1680 time(s)
Ukraine


Вроде и интересно, но звук подгулял, им бы хорошую студию.
Go to the top of the page
  Insert nick Quick quote
+Quote Post
post Nov 27 2021, 21:54:48
Post #4

Три Литра
***
Group: Завсегдатай
Posts: 263
Releases: 0
From: Zürich
On Forums: 11 months 4 days
Thanks: 148 time(s)
Switzerland


Даа даже хороший звук бы здесь общему горю не помог.
Рождественско-сказочный симфо метал, довольно унылый в-общем. Сказать что совсем не умеют сочинять нельзя, иногда приятные моменты проглядывают,
но все это тонет в общем болоте какого-то совершенно бездумного музицирования.
Go to the top of the page
  Insert nick Quick quote
+Quote Post
post Jan 1 2022, 02:22:55
Post #5

Два Литра
**
Group: Завсегдатай
Posts: 130
Releases: 0
On Forums: 3 years 5 months
Thanks: 42 time(s)
Russian Federation


Это настоящее сказочное музыкальное путешествие!
Go to the top of the page
  Insert nick Quick quote
+Quote Post
post Jan 1 2022, 02:27:48
Post #6

Ледоруб
**************
Group: Металариец
Posts: 30,138
Releases: 0
From: Санкт-Петербург
On Forums: 12 years 8 months
Thanks: 10801 time(s)
Russian Federation


Верю Энтони.
Go to the top of the page
  Insert nick Quick quote
+Quote Post
post Apr 2 2022, 15:32:04
Post #7

Old School Metal
**************
Group: Металариец
Posts: 4,352
Releases: 0
From: г. Минск
On Forums: 13 years 2 months
Thanks: 11185 time(s)
Belarus



Lychlake - The Tragedy Of Doctor Faustus (2021)


(IMG:https://ie.wampi.ru/2022/04/02/folder.jpg)


Format: mp3@320kbps (Lame 3.93)
Register

Lossless: FLAC (tracks)
Register


Go to the top of the page
  Insert nick Quick quote
+Quote Post

Reply to this topicStart new topic
1 User(s) are reading this topic (1 Guests and 0 Anonymous Users)
0 Members:

 



- Lo-Fi Version Support form
Copyrights and abuse reports form
Time is now: 20th May 2022 - 08:01:46