Welcome Guest ( Log In | Register )

> Releases Upload / Добавление релизов

Добавить релиз тут / Click here to add release
Рекомендованные обменники / Recommended file shares

 
Reply to this topicStart new topic
> Gorebag - Tethered To The Wicked Domain (2021), Brutal Death/Groove Metal
post Nov 25 2021, 15:55:59
Post #1

Serial Uploader
Group Icon
Group: V.I.P
Posts: 37,884
Releases: 36046
From: Lithuania
On Forums: 13 years 5 months
Thanks: 439342 time(s)
Lithuania


(IMG:https://metalarea.org/images/audiocovers/2021_Nov/acov_tid358806_thumb.jpg)

*Artist: Gorebag
*Album: Tethered To The Wicked Domain
*Year: 2021
*Genre: Brutal Death/Groove Metal
*Country: Finland (IMG:https://metalarea.org/forum/style_images/flags/Finland.png)
*Format: mp3@CBR320kbps
*Size: 68MB

Tracklist:
1. Abyss of the Wretched 02:38
2. Decomposed Reanimation 02:38
3. Amputated and Refrigerated 03:24
4. Regurgitated Eyeball Soup 03:01
5. Viscera Showers and Funky Funerals 02:55
6. Gutter Crawler 02:29
7. Fetid Cave of Entrails 02:49
8. Meat Grinder Blues 03:10
9. Psyche of the Debauched 02:51
10. From Nascency toward Termination 03:00
******************************
Total playing time: 28:55

Preview 1

(IMG:https://metalarea.org/images/youtube.png)

Technical info
(IMG:https://metalarea.org/images/spectrogram/2021_Nov/7af4699e3ef3b99eb3ac39ec5634cde9.png)
Input File: 07. Fetid Cave of Entrails.mp3
Channels : 2
Sample Rate : 44100
Precision : 16-bit
Duration : 00:02:49.08 = 7456296 samples = 12680.8 CDDA sectors
File Size : 6.92M
Bit Rate : 327k
Sample Encoding: MPEG audio (layer I, II or III)
Comments :
Title=Fetid Cave of Entrails
Artist=Gorebag
Album=Tethered to the Wicked Domain
Tracknumber=7
Year=2021
Discnumber=1/1



Register


Go to the top of the page
  Insert nick Quick quote
+Quote Post

Reply to this topicStart new topic
1 User(s) are reading this topic (1 Guests and 0 Anonymous Users)
0 Members:

 



- Lo-Fi Version Support form
Copyrights and abuse reports form
Time is now: 27th November 2021 - 00:00:57