Welcome Guest ( Log In | Register )

> Releases Upload / Добавление релизов

Добавить релиз тут / Click here to add release
Рекомендованные обменники / Recommended file shares

 
Reply to this topicStart new topic
> Ergholae Somptator - Mille Vertiges Fondent Sur Les Âmes Vides (2021), Black Metal
post Nov 25 2021, 16:09:31
Post #1

Serial Uploader
Group Icon
Group: V.I.P
Posts: 37,884
Releases: 36046
From: Lithuania
On Forums: 13 years 5 months
Thanks: 439347 time(s)
Lithuania


(IMG:https://metalarea.org/images/audiocovers/2021_Nov/acov_tid358808_thumb.jpg)

*Artist: Ergholae Somptator
*Album: Mille Vertiges Fondent Sur Les Âmes Vides
*Year: 2021
*Genre: Black Metal
*Country: France (IMG:https://metalarea.org/forum/style_images/flags/France.png)
*Format: mp3@CBR320kbps
*Size: 96MB

Tracklist:
1. La mort bientôt jouit
2. Les infectes salives
3. Mille vertiges
4. Deviens
5. La difformité des étoiles sombres
6. Tique mon amour
7. Aux silhouettes désolantes
8. Carbone
9. Hantise
******************************
Total playing time: 41:45



(IMG:https://metalarea.org/images/youtube.png)

Technical info
(IMG:https://metalarea.org/images/spectrogram/2021_Nov/9ba1912817e924c3411d5c4736a5af12.png)
Input File: 02 - Les Infectes Salives.mp3
Channels : 2
Sample Rate : 44100
Precision : 16-bit
Duration : 00:04:29.13 = 11868545 samples = 20184.6 CDDA sectors
File Size : 10.8M
Bit Rate : 321k
Sample Encoding: MPEG audio (layer I, II or III)
Comments :
Title=Les Infectes Salives
Artist=Ergholae Somptator
Album=Mille Vertiges Fondent Sur Les Âmes Vides
Tracknumber=2/9
Year=2021



Register


Go to the top of the page
  Insert nick Quick quote
+Quote Post

Reply to this topicStart new topic
1 User(s) are reading this topic (1 Guests and 0 Anonymous Users)
0 Members:

 



- Lo-Fi Version Support form
Copyrights and abuse reports form
Time is now: 27th November 2021 - 00:23:33