Welcome Guest ( Log In | Register )

> Releases Upload / Добавление релизов

Добавить релиз тут / Click here to add release
Рекомендованные обменники / Recommended file shares

 
Reply to this topicStart new topic
> Tdw - Fountains (2021), Progressive Metal (D4)
post Nov 25 2021, 16:21:39
Post #1

Serial Uploader
Group Icon
Group: V.I.P
Posts: 37,884
Releases: 36046
From: Lithuania
On Forums: 13 years 5 months
Thanks: 439342 time(s)
Lithuania


(IMG:https://metalarea.org/images/audiocovers/2021_Nov/acov_tid358809_thumb.jpg)

*Artist: Tdw
*Album: Fountains
*Year: 2021
*Genre: Progressive Metal
*Country: Netherlands (IMG:https://metalarea.org/forum/style_images/flags/Netherlands.png)
*Format: mp3@CBR320kbps
*Size: 130MB

Tracklist:
01. Fountains 05:45
02. Inner Enemy 04:30
03. Hope Song I 03:04
04. Gratitude Song 06:28
05. Hunter's Eyes 05:01
06. Anthracite 06:56
07. Another Choice, Another Universe 05:33
08. Graveyard Boogie 04:26
09. Traveller 05:31
10. Hope Song II 08:50
******************************
Total playing time: 56:04

(IMG:https://metalarea.org/images/myspace.png)

Preview 3
(IMG:https://metalarea.org/images/youtube.png)

Technical info
(IMG:https://metalarea.org/images/spectrogram/2021_Nov/7bd0db00fdba8ea434c1830942d79428.png)
Input File: 02 - TDW - Inner Enemy.mp3
Channels : 2
Sample Rate : 44100
Precision : 16-bit
Duration : 00:04:30.49 = 11928609 samples = 20286.8 CDDA sectors
File Size : 11.1M
Bit Rate : 327k
Sample Encoding: MPEG audio (layer I, II or III)
Comments :
Title=Inner Enemy
Artist=TDW
Album=Fountains
Tracknumber=2/10
Year=2021
Discnumber=1/1



Register


Go to the top of the page
  Insert nick Quick quote
+Quote Post

Reply to this topicStart new topic
2 User(s) are reading this topic (2 Guests and 0 Anonymous Users)
0 Members:

 



- Lo-Fi Version Support form
Copyrights and abuse reports form
Time is now: 27th November 2021 - 00:05:59