Welcome Guest ( Log In | Register )

> Releases Upload / Добавление релизов

Добавить релиз тут / Click here to add release
Рекомендованные обменники / Recommended file shares

 
Reply to this topicStart new topic
> Enthralled By Chaos - Hammerblast [ep] (2018), Death Metal
post Yesterday, 16:50:54
Post #1

Семь Литров
*******
Group: Металариец
Posts: 707
Releases: 143
On Forums: 2 years 6 months
Thanks: 2737 time(s)
Russian Federation


(IMG:https://metalarea.org/images/audiocovers/2021_Nov/acov_tid358810_thumb.jpg)

*Artist: Enthralled By Chaos
*Album: Hammerblast [ep]
*Year: 2018
*Genre: Death Metal
*Country: Switzerland (IMG:https://metalarea.org/forum/style_images/flags/Switzerland.png)
*Format: mp3@CBR320kbps
*Size: 30MB

Tracklist:
1. Call for War 03:09
2. On the Battlefield 03:21
3. Victory 03:52
4. Filthy Pleasure 02:40
******************************
Total playing time: 13:02





Technical info
(IMG:https://metalarea.org/images/spectrogram/2021_Nov/a6acf1ea0b3c011c809a64d5434ef130.png)
Input File: 02. On the Battlefield.mp3
Channels : 2
Sample Rate : 44100
Precision : 16-bit
Duration : 00:03:21.39 = 8881387 samples = 15104.4 CDDA sectors
File Size : 8.06M
Bit Rate : 320k
Sample Encoding: MPEG audio (layer I, II or III)
Comments :
Title=On the Battlefield
Artist=Enthralled By Chaos
Album=Hammerblast
Tracknumber=02
Year=2018
Genre=Death Metal



Register


Go to the top of the page
  Insert nick Quick quote
+Quote Post

Reply to this topicStart new topic
1 User(s) are reading this topic (1 Guests and 0 Anonymous Users)
0 Members:

 



- Lo-Fi Version Support form
Copyrights and abuse reports form
Time is now: 26th November 2021 - 23:51:06