Welcome Guest ( Log In | Register )

> Releases Upload / Добавление релизов

Добавить релиз тут / Click here to add release
Рекомендованные обменники / Recommended file shares

 
Reply to this topicStart new topic
> Alien Force - We Meet Again (2021), Heavy Metal
post Nov 25 2021, 16:58:32
Post #1

Serial Uploader
Group Icon
Group: V.I.P
Posts: 37,884
Releases: 36046
From: Lithuania
On Forums: 13 years 5 months
Thanks: 439355 time(s)
Lithuania


(IMG:https://metalarea.org/images/audiocovers/2021_Nov/acov_tid358811_thumb.jpg)

*Artist: Alien Force
*Album: We Meet Again
*Year: 2021
*Genre: Heavy Metal
*Country: Denmark (IMG:https://metalarea.org/forum/style_images/flags/Denmark.png)
*Format: mp3@CBR320kbps
*Size: 105MB

Tracklist:
01. Set Me Free 04:49
02. Rebellions 04:10
03. I Decide for You 04:00
04. Sceptical Feeling 04:06
05. Killing Time 04:18
06. Forgive Me 04:25
07. We Meet Again 04:59
08. Precious Time 05:01
09. Temptations 04:55
10. Song for You 04:03
******************************
Total playing time: 44:46

(IMG:https://metalarea.org/images/myspace.png)

(IMG:https://metalarea.org/images/youtube.png)

Technical info
(IMG:https://metalarea.org/images/spectrogram/2021_Nov/fc8433b37ee5212de906241d3e1601f4.png)
Input File: 02 - Rebellions.mp3
Channels : 2
Sample Rate : 44100
Precision : 16-bit
Duration : 00:04:09.00 = 10980900 samples = 18675 CDDA sectors
File Size : 10.2M
Bit Rate : 329k
Sample Encoding: MPEG audio (layer I, II or III)
Comments :
Title=Rebellions
Artist=Alien Force
Album=We Meet Again
Tracknumber=2
Year=2021-11-26
Discnumber=1



Register


Go to the top of the page
  Insert nick Quick quote
+Quote Post

Reply to this topicStart new topic
2 User(s) are reading this topic (2 Guests and 0 Anonymous Users)
0 Members:

 



- Lo-Fi Version Support form
Copyrights and abuse reports form
Time is now: 27th November 2021 - 01:33:20