Welcome Guest ( Log In | Register )

> Releases Upload / Добавление релизов

Добавить релиз тут / Click here to add release
Рекомендованные обменники / Recommended file shares

> Servant - Blessed By The Light Of A Thousand Stars (2021), Black Metal (D4)
post Nov 25 2021, 17:09:08
Post #1

Serial Uploader
Group Icon
Group: V.I.P
Posts: 37,884
Releases: 36046
From: Lithuania
On Forums: 13 years 5 months
Thanks: 439355 time(s)
Lithuania


(IMG:https://metalarea.org/images/audiocovers/2021_Nov/acov_tid358812_thumb.jpg)

*Artist: Servant
*Album: Blessed By The Light Of A Thousand Stars
*Year: 2021
*Genre: Black Metal
*Country: France (IMG:https://metalarea.org/forum/style_images/flags/France.png)
*Format: mp3@CBR320kbps
*Size: 101MB

Tracklist:
01. Negate the I 07:35
02. Death Meditation 06:29
03. The Ultimate Occult Worship 04:28
04. Foreshadowing Rite 02:44
05. Hymn to the Latest Days 04:28
06. Incantation of the Old Ones 03:58
07. Destruction and Recreation 03:17
08. Ecclesia Obscuri 06:12
09. Blessed by the Light of a Thousand Stars 04:08
******************************
Total playing time: 43:19


Preview 2
(IMG:https://metalarea.org/images/youtube.png)

Technical info
(IMG:https://metalarea.org/images/spectrogram/2021_Nov/610ace5e58d4eea7d4e4ccbd19c9d42c.png)
Input File: 02 - Death Meditation.mp3
Channels : 2
Sample Rate : 44100
Precision : 16-bit
Duration : 00:06:29.43 = 17173951 samples = 29207.4 CDDA sectors
File Size : 15.8M
Bit Rate : 324k
Sample Encoding: MPEG audio (layer I, II or III)
Comments :
Title=Death Meditation
Artist=SERVANT
Album=Blessed by the Light of a Thousand Stars
Tracknumber=2
Year=2021
Discnumber=1/1



Register


Go to the top of the page
  Insert nick Quick quote
+Quote Post
 
Start new topic
Replies (1 - 3)
post Yesterday, 12:16:29
Post #2

Group: Дух
Posts: 2
Releases: 0
On Forums: 1 year 7 months
Thanks: 0 time(s)
Azerbaijan


Country is Germany according their Instragram Account.
Go to the top of the page
  Insert nick Quick quote
+Quote Post
post Yesterday, 22:36:19
Post #3

De Mysteriis Dom Sathanas
**************
Group: Металариец
Posts: 4,338
Releases: 64
From: Doom
On Forums: 13 years 4 months
Thanks: 3729 time(s)
Russian Federation


(IMG:https://cs5.livemaster.ru/storage/b6/13/f3ff86d7592d99e9c4abf34099a2--dlya-doma-i-interera-servant-v-stile-60-h-godov-20-veka.jpg)
Go to the top of the page
  Insert nick Quick quote
+Quote Post
post Yesterday, 23:08:18
Post #4

Это просто место… где все подошло к концу.
**************
Group: Металариец
Posts: 6,443
Releases: 0
From: Страны Мамонтов
On Forums: 14 years 9 months
Thanks: 2536 time(s)
Antarctica


ЦИТАТА(RUSP73 @ Nov 27 2021, 00:36:19) *

У меня такой был.
Go to the top of the page
  Insert nick Quick quote
+Quote Post

Reply to this topicStart new topic
3 User(s) are reading this topic (3 Guests and 0 Anonymous Users)
0 Members:

 



- Lo-Fi Version Support form
Copyrights and abuse reports form
Time is now: 27th November 2021 - 01:43:29