Welcome Guest ( Log In | Register )

> Releases Upload / Добавление релизов

Добавить релиз тут / Click here to add release
Рекомендованные обменники / Recommended file shares

> The Consistency Paradox - I, Devourer (2021), Black Metal
post Yesterday, 17:17:57
Post #1

Serial Uploader
Group Icon
Group: V.I.P
Posts: 37,884
Releases: 36046
From: Lithuania
On Forums: 13 years 5 months
Thanks: 439342 time(s)
Lithuania


(IMG:https://metalarea.org/images/audiocovers/2021_Nov/acov_tid358813_thumb.jpg)

*Artist: The Consistency Paradox
*Album: I, Devourer
*Year: 2021
*Genre: Black Metal
*Country: United States (IMG:https://metalarea.org/forum/style_images/flags/United%20States.png)
*Format: mp3@CBR320kbps
*Size: 72MB

Tracklist:
01. Gates of Horn & Ivory 00:56
02. Blood Curse 05:00
03. Wretched Kingdom of Despair 03:22
04. Human Ruination 04:58
05. Blasphemous Manifesto 03:19
06. Order of the Black Moon 04:15
07. Nocturnal Reveries 03:46
08. Severed Reality 02:12
09. I, Devourer 03:27
******************************
Total playing time: 31:15

(IMG:https://metalarea.org/images/youtube.png)

Technical info
(IMG:https://metalarea.org/images/spectrogram/2021_Nov/bce97aacf42b7c483c24a72e3527f03a.png)
Input File: 02 - Blood Curse.mp3
Channels : 2
Sample Rate : 44100
Precision : 16-bit
Duration : 00:04:59.98 = 13229250 samples = 22498.7 CDDA sectors
File Size : 12.1M
Bit Rate : 322k
Sample Encoding: MPEG audio (layer I, II or III)
Comments :
Title=Blood Curse
Artist=The Consistency Paradox
Album=I, Devourer
Tracknumber=2
Year=2021
Discnumber=1/1



Register


Go to the top of the page
  Insert nick Quick quote
+Quote Post
 
Start new topic
Replies (1 - 1)
post Yesterday, 19:53:09
Post #2

While Waiting the Worms
**********
Group: Металариец
Posts: 1,411
Releases: 0
On Forums: 7 years 11 months
Thanks: 2149 time(s)
Unknown


Назвать эту поe6oтину блэком - расписаться в собственном полнейшем невежестве.


Thanks:
(1) SyncestrA,
Go to the top of the page
  Insert nick Quick quote
+Quote Post

Reply to this topicStart new topic
2 User(s) are reading this topic (2 Guests and 0 Anonymous Users)
0 Members:

 



- Lo-Fi Version Support form
Copyrights and abuse reports form
Time is now: 26th November 2021 - 23:57:17