Welcome Guest ( Log In | Register )

> Releases Upload / Добавление релизов

Добавить релиз тут / Click here to add release
Рекомендованные обменники / Recommended file shares

> Rexul - Erebus Virtuosus Alpha (2021), Death Metal
post Nov 25 2021, 17:39:24
Post #1

Правь статус, ####!111
**************
Group: Металариец
Posts: 28,129
Releases: 20522
From: Г.Харьков
On Forums: 9 years 6 months
Thanks: 417302 time(s)
Unknown


(IMG:https://metalarea.org/images/audiocovers/2021_Nov/acov_tid358814_thumb.jpg)

*Artist: Rexul
*Album: Erebus Virtuosus Alpha
*Year: 2021
*Genre: Death Metal
*Country: Germany (IMG:https://metalarea.org/forum/style_images/flags/Germany.png)
*Format: mp3@CBR320kbps
*Size: 114MB

Tracklist:
1. 999
2. Intergalactic Eyes
3. Reentry in Emptiness
4. The Light
5. Entlightened by the Morning Star
6. Fraternitas of an Old Noir Latreia
7. 333
8. Immaculate Vengeance
9. Curia
10. The Darkness
11. Undead Between The Column of Salomon
12. Laudatio per Mortem
13. 666
******************************
Total playing time: 49:04




Extended info
Simon M. - Guitars/Bass/Vocals. Ex member of By Brute Force & Diabolical Imperium
Benny O. - Guitars/Bass/Keys. Ex member of Diabolical Imperium


Technical info
(IMG:https://metalarea.org/images/spectrogram/2021_Nov/3a1e7c39728369112ff50ca1ce79eedc.png)
Input File: 09 - Curia.mp3
Channels : 2
Sample Rate : 44100
Precision : 16-bit
Duration : 00:05:16.29 = 13948169 samples = 23721.4 CDDA sectors
File Size : 12.9M
Bit Rate : 326k
Sample Encoding: MPEG audio (layer I, II or III)
Comments :
Title=Curia
Artist=Rexul
Album=Erebus Virtuosus Alpha
Tracknumber=9
Year=2021



Register


Go to the top of the page
  Insert nick Quick quote
+Quote Post
 
Start new topic
Replies (1 - 1)
post Nov 25 2021, 18:25:31
Post #2

Маньяк
**********
Group: Металариец
Posts: 1,249
Releases: 1
From: APATIN, SERBIA, АПАТИН, СЕРБИЯ
On Forums: 14 years 1 month
Thanks: 3137 time(s)



Flac

Register


Thanks:
Go to the top of the page
  Insert nick Quick quote
+Quote Post

Reply to this topicStart new topic
1 User(s) are reading this topic (1 Guests and 0 Anonymous Users)
0 Members:

 



- Lo-Fi Version Support form
Copyrights and abuse reports form
Time is now: 27th November 2021 - 00:39:11