Welcome Guest ( Log In | Register )

> Releases Upload / Добавление релизов

Добавить релиз тут / Click here to add release
Рекомендованные обменники / Recommended file shares

 
Reply to this topicStart new topic
> Fleischer - Knochenhauer (2021), Thrash/Death Metal
post Nov 25 2021, 18:00:56
Post #1

Правь статус, ####!111
**************
Group: Металариец
Posts: 28,129
Releases: 20522
From: Г.Харьков
On Forums: 9 years 6 months
Thanks: 417297 time(s)
Unknown


(IMG:https://metalarea.org/images/audiocovers/2021_Nov/acov_tid358815_thumb.jpg)

*Artist: Fleischer
*Album: Knochenhauer
*Year: 2021
*Genre: Thrash/Death Metal
*Country: Germany (IMG:https://metalarea.org/forum/style_images/flags/Germany.png)
*Format: mp3@CBR320kbps
*Size: 68MB

Tracklist:
1. Spielgefährte
2. Der Schneider
3. Geburtstag
4. Rattenfängerin
5. Fleischer
6. Schlag mich
7. Fieber
8. Vater
******************************
Total playing time: 29:22



Extended info



Technical info
(IMG:https://metalarea.org/images/spectrogram/2021_Nov/f715c726110999c15196f832b3d87a82.png)
Input File: 08 - Vater.mp3
Channels : 2
Sample Rate : 44100
Precision : 16-bit
Duration : 00:04:43.68 = 12510244 samples = 21275.9 CDDA sectors
File Size : 11.5M
Bit Rate : 323k
Sample Encoding: MPEG audio (layer I, II or III)
Comments :
Title=Vater
Artist=Fleischer
Album=Knochenhauer
Tracknumber=8/8
Year=2021



Register


Go to the top of the page
  Insert nick Quick quote
+Quote Post

Reply to this topicStart new topic
2 User(s) are reading this topic (2 Guests and 0 Anonymous Users)
0 Members:

 



- Lo-Fi Version Support form
Copyrights and abuse reports form
Time is now: 27th November 2021 - 00:22:08