Welcome Guest ( Log In | Register )

> Khnvm - Portals To Oblivion (2021), Old School Death Metal
post Nov 25 2021, 18:21:18
Post #1

Правь статус, ####!111
**************
Group: Металариец
Posts: 29,216
Releases: 21439
From: Г.Харьков
On Forums: 10 years 1 week
Thanks: 442702 time(s)
Unknown


(IMG:https://metalarea.org/images/audiocovers/2021_Nov/acov_tid358818_thumb.jpg)

*Artist: Khnvm
*Album: Portals To Oblivion
*Year: 2021
*Genre: Old School Death Metal
*Country: International (IMG:https://metalarea.org/forum/style_images/flags/International.png)
*Format: mp3@CBR320kbps
*Size: 89MB

Tracklist:
01. Ethos of the Otherly World (Intro)
02. Portals to Oblivion
03. Heretic Ascension
04. Baptized by the Father Befouled
05. Drink from the Chalice of Suffering
06. No Solace
07. Spectral Chaos
******************************
Total playing time: 38:30




Extended info
Showmik Das a.k.a Obliterator (Guitars/Vocals)
Martyr (Bass)
Cassian (Drums)


Technical info
(IMG:https://metalarea.org/images/spectrogram/2021_Nov/6c36eba4134cf667829848fb5a84cb40.png)
Input File: KHNVM - KHNVM - PORTALS TO OBLIVION - 05 Baptized by the father befouled.mp3
Channels : 2
Sample Rate : 44100
Precision : 16-bit
Duration : 00:04:51.02 = 12833982 samples = 21826.5 CDDA sectors
File Size : 11.8M
Bit Rate : 323k
Sample Encoding: MPEG audio (layer I, II or III)
Comments :
Title=Baptized by the father befouled
Artist=KHNVM
Album=KHNVM - PORTALS TO OBLIVION
Tracknumber=5
Year=2021



Register


Go to the top of the page
  Insert nick Quick quote
+Quote Post
 
Start new topic
Replies (1 - 4)
post Nov 25 2021, 20:24:57
Post #2

Правь статус, ####!111
**************
Group: Металариец
Posts: 29,216
Releases: 21439
From: Г.Харьков
On Forums: 10 years 1 week
Thanks: 442702 time(s)
Unknown


FLAC (Tracks) 449mb
Register


Go to the top of the page
  Insert nick Quick quote
+Quote Post
post Nov 26 2021, 11:49:30
Post #3

MDM-Thrash Metal
**************
Group: Металариец
Posts: 11,062
Releases: 1466
From: Одесса
On Forums: 14 years 9 months
Thanks: 35034 time(s)
Ukraine


Очень добротная, смачная дезяра шведского разлива, да в добавок не лишенная ноток мелодизма! (IMG:style_emoticons/default/20.gif)


Go to the top of the page
  Insert nick Quick quote
+Quote Post
post Nov 26 2021, 21:18:16
Post #4

Три Литра
***
Group: Завсегдатай
Posts: 281
Releases: 0
On Forums: 4 years 3 months
Thanks: 89 time(s)
Saint Helena


ЦИТАТА(Andrew @ Nov 26 2021, 11:49:30) *
Очень добротная, смачная дезяра шведского разлива, да в добавок не лишенная ноток мелодизма! (IMG:style_emoticons/default/20.gif)

Нотки мелодизма - это гуд (IMG:style_emoticons/default/9.gif)


Thanks:
Go to the top of the page
  Insert nick Quick quote
+Quote Post
post Dec 1 2021, 10:32:39
Post #5

Мегаманьяк
***********
Group: Металариец
Posts: 1,828
Releases: 0
From: Санкт-Петербург
On Forums: 12 years 8 months
Thanks: 817 time(s)
Russian Federation


ЦИТАТА(Andrew @ Nov 26 2021, 13:49:30) *
Очень добротная, смачная дезяра шведского разлива, да в добавок не лишенная ноток мелодизма! (IMG:style_emoticons/default/20.gif)

Здесь всё-таки не шведятина в чистом виде, а "солянка" разных школ старого дэта
Местами очень даже неплохо...


Thanks:
Go to the top of the page
  Insert nick Quick quote
+Quote Post

Reply to this topicStart new topic
2 User(s) are reading this topic (2 Guests and 0 Anonymous Users)
0 Members:

 



- Lo-Fi Version Support form
Copyrights and abuse reports form
Time is now: 18th May 2022 - 14:45:33