Welcome Guest ( Log In | Register )

> Releases Upload / Добавление релизов

Добавить релиз тут / Click here to add release
Рекомендованные обменники / Recommended file shares

> Swamp Coffin - Noose Almighty (2021), Sludge/Doom/Stoner Metal
post Nov 25 2021, 18:34:03
Post #1

Правь статус, ####!111
**************
Group: Металариец
Posts: 28,131
Releases: 20522
From: Г.Харьков
On Forums: 9 years 6 months
Thanks: 417311 time(s)
Unknown


(IMG:https://metalarea.org/images/audiocovers/2021_Nov/acov_tid358819_thumb.jpg)

*Artist: Swamp Coffin
*Album: Noose Almighty
*Year: 2021
*Genre: Sludge/Doom/Stoner Metal
*Country: United Kingdom (IMG:https://metalarea.org/forum/style_images/flags/United%20Kingdom.png)
*Format: mp3@CBR320kbps
*Size: 90MB

Tracklist:
1. Your Problem 05:59
2. Jägerbombs Away 04:20
3. Barbarian Windsor 07:14
4. Noose Almighty 05:52
5. Knuckledrageger 08:06
6. Welcome to Rot 07:39
******************************
Total playing time: 39:10




Extended info
David Wistow Drums
Jon Rhodes Guitars, Vocals
Martyn White Bass


Technical info
(IMG:https://metalarea.org/images/spectrogram/2021_Nov/57d955f144852984a3641d104d1c1cee.png)
Input File: 05 - Knuckledragger.mp3
Channels : 2
Sample Rate : 44100
Precision : 16-bit
Duration : 00:08:06.09 = 21436569 samples = 36456.8 CDDA sectors
File Size : 19.6M
Bit Rate : 323k
Sample Encoding: MPEG audio (layer I, II or III)
Comments :
Title=Knuckledragger
Artist=Swamp Coffin
Album=Noose Almighty
Tracknumber=5
Year=2021



Register


Go to the top of the page
  Insert nick Quick quote
+Quote Post
 
Start new topic
Replies (1 - 1)
post Nov 25 2021, 20:23:40
Post #2

Правь статус, ####!111
**************
Group: Металариец
Posts: 49,519
Releases: 891
On Forums: 12 years 5 months
Thanks: 45509 time(s)
Russian Federation


Полнейший третьесорт и никакого нихилизьму (как они указывают на бэндкампе) тут ваще нет.
Go to the top of the page
  Insert nick Quick quote
+Quote Post

Reply to this topicStart new topic
1 User(s) are reading this topic (1 Guests and 0 Anonymous Users)
0 Members:

 



- Lo-Fi Version Support form
Copyrights and abuse reports form
Time is now: 27th November 2021 - 01:40:53