Welcome Guest ( Log In | Register )

> Releases Upload / Добавление релизов

Добавить релиз тут / Click here to add release
Рекомендованные обменники / Recommended file shares

> Sasqwytch - Satanopithecus (2021), Death/Doom Metal
post Nov 26 2021, 07:54:47
Post #1

Правь статус, ####!111
**************
Group: Металариец
Posts: 28,592
Releases: 20922
From: Г.Харьков
On Forums: 9 years 8 months
Thanks: 427870 time(s)
Unknown


(IMG:https://metalarea.org/images/audiocovers/2021_Nov/acov_tid358823_thumb.jpg)

*Artist: Sasqwytch
*Album: Satanopithecus
*Year: 2021
*Genre: Death/Doom Metal
*Country: United States (IMG:https://metalarea.org/forum/style_images/flags/United%20States.png)
*Format: mp3@CBR320kbps
*Size: 70MB

Tracklist:
1. Reciting His Demonic Enns 01:43
2. On All Fours 04:28
3. Trepanning the Obelion Point 04:47
4. Blood Loss Intoxication 04:42
5. Lair of the Troglodyte 05:23
6. Larval Eruptions 04:15
7. Satanopithecus 05:37
******************************
Total playing time: 30:55



Extended info
Pazuzurayuli Bass
Tso'Appitseisheth Drums
Ucumasag Guitars, Vocals


Technical info
(IMG:https://metalarea.org/images/spectrogram/2021_Nov/96691d7f9e5932b10a3a361637e9b273.png)
Input File: 07 - Satanopithecus.mp3
Channels : 2
Sample Rate : 44100
Precision : 16-bit
Duration : 00:05:37.29 = 14874269 samples = 25296.4 CDDA sectors
File Size : 13.5M
Bit Rate : 321k
Sample Encoding: MPEG audio (layer I, II or III)
Comments :
Title=Satanopithecus
Artist=Sasqwytch
Album=Satanopithecus
Tracknumber=7/7
Year=2021



Register


Go to the top of the page
  Insert nick Quick quote
+Quote Post
 
Start new topic
Replies (1 - 2)
post Nov 26 2021, 12:43:30
Post #2

Четыре Литра
****
Group: Металариец
Posts: 399
Releases: 0
On Forums: 3 years 11 months
Thanks: 148 time(s)
Belarus


Мда. Какая обложка - такое и содержимое. Мало того, что примитив, так еще и блэковый вокал. Чудом сдержался, чтобы не блевануть.
Go to the top of the page
  Insert nick Quick quote
+Quote Post
post Nov 27 2021, 09:29:30
Post #3

Common dweller of hell
**************
Group: Металариец
Posts: 4,191
Releases: 12
From: Dnipro
On Forums: 13 years 6 months
Thanks: 1648 time(s)
Ukraine


ЦИТАТА(GRAF @ Nov 26 2021, 13:43:30) *
Чудом сдержался, чтобы не блевануть.

Врачи запрещают сдерживаться, это вредит здоровью (IMG:style_emoticons/default/1488.gif)
Go to the top of the page
  Insert nick Quick quote
+Quote Post

Reply to this topicStart new topic
1 User(s) are reading this topic (1 Guests and 0 Anonymous Users)
0 Members:

 



- Lo-Fi Version Support form
Copyrights and abuse reports form
Time is now: 24th January 2022 - 20:34:46