Welcome Guest ( Log In | Register )

> Releases Upload / Добавление релизов

Добавить релиз тут / Click here to add release
Рекомендованные обменники / Recommended file shares

> In The Shadows Of Giants - The Quiet World (2021), Progressive Death Metal
post Nov 26 2021, 12:40:22
Post #1

Правь статус, ####!111
**************
Group: Металариец
Posts: 28,592
Releases: 20922
From: Г.Харьков
On Forums: 9 years 8 months
Thanks: 427877 time(s)
Unknown


(IMG:https://metalarea.org/images/audiocovers/2021_Nov/acov_tid358835_thumb.jpg)

*Artist: In The Shadows Of Giants
*Album: The Quiet World
*Year: 2021
*Genre: Progressive Death Metal
*Country: United States (IMG:https://metalarea.org/forum/style_images/flags/United%20States.png)
*Format: mp3@CBR320kbps
*Size: 193MB

Tracklist:
1. Premonition 03:08
2. A Violent Calm 08:03
3. The Twilight Epitaph I: Zenith Overtaken 11:31
4. The Twilight Epitaph II: Endure 06:47
5. The Twilight Epitaph III: Bleeding Wounds//Grieving Soil 15:01
6. The Twilight Epitaph IV: A Fracture Between Blackness and Birth 03:18
7. The Atrophy 09:56
8. The Maw Beneath the Waves 06:45
9. To Walk Slowly Through a Quiet World 19:13
******************************
Total playing time: 1:23:42




Extended info
Matt Berry - guitar, vocals, bass, orchestration
Timothy VanSlyke - guitar, backing vocals, bass, orchestration
Jeff Berry - drums


Technical info
(IMG:https://metalarea.org/images/spectrogram/2021_Nov/5c77152c0feec8af8134e231d8956ada.png)
Input File: 07 - The Atrophy.mp3
Channels : 2
Sample Rate : 44100
Precision : 16-bit
Duration : 00:09:56.70 = 26314250 samples = 44752.1 CDDA sectors
File Size : 24.0M
Bit Rate : 322k
Sample Encoding: MPEG audio (layer I, II or III)
Comments :
Title=The Atrophy
Artist=In the Shadows of Giants
Album=The Quiet World
Tracknumber=7/1



Register


Go to the top of the page
  Insert nick Quick quote
+Quote Post
 
Start new topic
Replies (1 - 1)
post Nov 26 2021, 14:36:42
Post #2

Правь статус, ####!111
**************
Group: Металариец
Posts: 28,592
Releases: 20922
From: Г.Харьков
On Forums: 9 years 8 months
Thanks: 427877 time(s)
Unknown


FLAC (Tracks) 530 mb
Register


Go to the top of the page
  Insert nick Quick quote
+Quote Post

Reply to this topicStart new topic
1 User(s) are reading this topic (1 Guests and 0 Anonymous Users)
0 Members:

 



- Lo-Fi Version Support form
Copyrights and abuse reports form
Time is now: 24th January 2022 - 21:42:34