Welcome Guest ( Log In | Register )

 
Reply to this topicStart new topic
> Trono - Anthology Of The Plague [compilation] (2019), Black Metal
post Nov 26 2021, 13:38:55
Post #1

the faceless one
Group Icon
Group: S-moderation team
Posts: 9,521
Releases: 1969
On Forums: 13 years 5 months
Thanks: 120307 time(s)
Russian Federation


(IMG:http://metalarea.org/images/audiocovers/2021_Nov/acov_tid358836_thumb.jpg)

*Artist: Trono
*Album: Anthology Of The Plague [compilation]
*Year: 2019
*Genre: Black Metal
*Country: Brazil (IMG:http://metalarea.org/forum/style_images/flags/Brazil.png)
*Format: mp3@CBR320kbps
*Size: 120MB

Tracklist:
1. Reverentia Mors Calyx 03:26
2. Noite Holocausto 03:21
3. Licantropia 03:51
4. Possessor 02:50
5. Marcha para o Trono Infausto 03:53
6. Rito da Lua Cheia 03:31
7. In Spiritus Nox Venice 03:40
8. Implicare Ignem Ossibus 06:01
9. Antichristus Sapientia 04:57
10. Escura Noite D'alma 06:41
11. Facta Spiritus Inserere 05:28
12. Atavismo 06:10
******************************
Total playing time: 53:49



Extended info
CD-Rip, lossy-mastered

Nomos Dei Productions

The compilation of demo tapes from 2003-2010 which previously was released by the band only on tape format.

Digipak limited to 101 handnumbered copies.


Technical info
(IMG:http://metalarea.org/images/spectrogram/2021_Nov/bf1ae0d7c4e391879412087dad09f17f.png)
Input File: 03. 3. Licantropia.mp3
Channels : 2
Sample Rate : 44100
Precision : 16-bit
Duration : 00:03:51.80 = 10222248 samples = 17384.8 CDDA sectors
File Size : 9.27M
Bit Rate : 320k
Sample Encoding: MPEG audio (layer I, II or III)
Comments :
Title=3. Licantropia
Artist=Trono
Album=Anthology of the Plague
Tracknumber=03/12



Register


Go to the top of the page
  Insert nick Quick quote
+Quote Post

Reply to this topicStart new topic
1 User(s) are reading this topic (1 Guests and 0 Anonymous Users)
0 Members:

 



- Lo-Fi Version Support form
Copyrights and abuse reports form
Time is now: 28th January 2022 - 23:41:59