Welcome Guest ( Log In | Register )

> Releases Upload / Добавление релизов

Добавить релиз тут / Click here to add release
Рекомендованные обменники / Recommended file shares

> Nekrovault - Nachhut: Toward The Towering Tomb [ep] (2021), Death/Doom/Black Metal
post Nov 27 2021, 02:52:25
Post #1

Правь статус, ####!111
**************
Group: Металариец
Posts: 28,592
Releases: 20922
From: Г.Харьков
On Forums: 9 years 8 months
Thanks: 427873 time(s)
Unknown


(IMG:https://metalarea.org/images/audiocovers/2021_Nov/acov_tid358862_thumb.jpg)

*Artist: Nekrovault
*Album: Nachhut: Toward The Towering Tomb [ep]
*Year: 2021
*Genre: Death/Doom/Black Metal
*Country: Germany (IMG:https://metalarea.org/forum/style_images/flags/Germany.png)
*Format: mp3@CBR320kbps
*Size: 45MB

Tracklist:
1. Where The Fog Entombed The Light 10:51
2. Black Hole Grave Milestone 08:21
******************************
Total playing time: 19:12




Extended info
P. Bass, Vocals
See also: Khaos, Motörcult, Niht, Nocturnal Weed, Volcanic, Sacroscum (live)
V. Drums
See also: Graven, ex-Chaosreign, ex-Nocti Vagus, ex-Nordwind, ex-Totenreich, ex-Revel in Flesh
S. Guitars
See also: Niht
SS. Guitars (lead)
See also: Khaos, Sacroscum, Blackevil (live), Niht (live), ex-Hate Preacher, ex-Massive Demolition


Technical info
(IMG:https://metalarea.org/images/spectrogram/2021_Nov/c32f97229885148f1a50f8af61de0978.png)
Input File: 02 - Black Hole Grave Millstone.mp3
Channels : 2
Sample Rate : 44100
Precision : 16-bit
Duration : 00:08:21.08 = 22097716 samples = 37581.1 CDDA sectors
File Size : 20.5M
Bit Rate : 327k
Sample Encoding: MPEG audio (layer I, II or III)
Comments :
Title=Black Hole Grave Millstone
Artist=Nekrovault
Album=Nachhut: Toward the Towering Tomb
Tracknumber=2/1



Register


Go to the top of the page
  Insert nick Quick quote
+Quote Post
 
Start new topic
Replies (1 - 1)
post Nov 28 2021, 07:52:59
Post #2

hearer & reader
**************
Group: Металариец
Posts: 10,074
Releases: 183
From: Moscow
On Forums: 14 years 4 months
Thanks: 11668 time(s)
Russian Federation


Register


Thanks:
Go to the top of the page
  Insert nick Quick quote
+Quote Post

Reply to this topicStart new topic
1 User(s) are reading this topic (1 Guests and 0 Anonymous Users)
0 Members:

 



- Lo-Fi Version Support form
Copyrights and abuse reports form
Time is now: 24th January 2022 - 21:20:31