Welcome Guest ( Log In | Register )

> Releases Upload / Добавление релизов

Добавить релиз тут / Click here to add release
Рекомендованные обменники / Recommended file shares

> Torture Of Hypocrisy - Random Augmentation (2014), Groove/Thrash Metal (D6)
post Nov 27 2021, 08:42:20
Post #1

Death and Black Metal Holocaust
**************
Group: Металариец
Posts: 2,860
Releases: 78
From: Technical Death из 90-х
On Forums: 11 years 6 months
Thanks: 7045 time(s)
Unknown


(IMG:https://metalarea.org/images/audiocovers/2021_Nov/acov_tid358876_thumb.jpg)

*Artist: Torture Of Hypocrisy
*Album: Random Augmentation
*Year: 2014
*Genre: Groove/Thrash Metal
*Country: Poland (IMG:https://metalarea.org/forum/style_images/flags/Poland.png)
*Format: mp3@CBR320kbps
*Size: 110MB

Tracklist:
01. Intro 00:34
02. Crucified Truth 06:34
03. Deceiver 02:58
04. Eyes Of Deviation 04:13
05. Psycholust 04:15
06. Chernobyl 03:53
07. United States of Armageddon 04:56
08. Liar's Den 04:09
09. Wake Up In The Grave 04:40
10. Ten Commandments Of Terror 04:48
11. Last Logical Process 03:29
12. Outro 01:03
******************************
Total playing time: 45:32



Technical info
(IMG:https://metalarea.org/images/spectrogram/2021_Nov/9410d423a5e28483b474a04efe84fd6d.png)
Input File: 02. Crucified Truth.mp3
Channels : 2
Sample Rate : 44100
Precision : 16-bit
Duration : 00:06:34.75 = 17408299 samples = 29606 CDDA sectors
File Size : 16.1M
Bit Rate : 326k
Sample Encoding: MPEG audio (layer I, II or III)
Comments :
Title=Crucified Truth
Artist=Torture of Hypocrisy
Album=Random Augmentation
Tracknumber=02
Year=2014
Genre=Groove Thrash Metal



Register


Go to the top of the page
  Insert nick Quick quote
+Quote Post
 
Start new topic
Replies (1 - 1)
post Nov 27 2021, 11:34:01
Post #2

Death and Black Metal Holocaust
**************
Group: Металариец
Posts: 2,860
Releases: 78
From: Technical Death из 90-х
On Forums: 11 years 6 months
Thanks: 7045 time(s)
Unknown



Go to the top of the page
  Insert nick Quick quote
+Quote Post

Reply to this topicStart new topic
1 User(s) are reading this topic (1 Guests and 0 Anonymous Users)
0 Members:

 



- Lo-Fi Version Support form
Copyrights and abuse reports form
Time is now: 24th January 2022 - 20:35:59