Welcome Guest ( Log In | Register )

> Releases Upload / Добавление релизов

Добавить релиз тут / Click here to add release
Рекомендованные обменники / Recommended file shares

 
Reply to this topicStart new topic
> Cmf - Show Me To Laugh [demo] (1995), Groove Metal/Grunge/Alternative Rock
post Nov 27 2021, 08:42:48
Post #1

Подвал
**************
Group: Металариец
Posts: 16,673
Releases: 9520
From: Far East (Khabarovsk)
On Forums: 12 years 11 months
Thanks: 108945 time(s)
Russian Federation


(IMG:http://metalarea.org/images/audiocovers/2021_Nov/acov_tid358877_thumb.jpg)

*Artist: Cmf
*Album: Show Me To Laugh [demo]
*Year: 1995
*Genre: Groove Metal/Grunge/Alternative Rock
*Country: Germany (IMG:http://metalarea.org/forum/style_images/flags/Germany.png)
*Format: mp3@CBR320kbps
*Size: 66MB

Tracklist:
1. Intro (Show Me To Laugh) 00:56
2. Broken Image 04:43
3. Stop 03:51
4. The Seamy Side 02:10
5. Cash 02:25
6. Braindead 03:19
7. 1+1 05:52
8. Fur Is Dead 02:59
9. Getting Sick 02:29
******************************
Total playing time: 28:44

Technical info
(IMG:http://metalarea.org/images/spectrogram/2021_Nov/5cb9969eaadd6ff2e28b74fb15fd69ea.png)
Input File: 02-Broken Image.mp3
Channels : 2
Sample Rate : 44100
Precision : 16-bit
Duration : 00:04:43.42 = 12498866 samples = 21256.6 CDDA sectors
File Size : 11.3M
Bit Rate : 320k
Sample Encoding: MPEG audio (layer I, II or III)
Comments :
Title=Broken Image
Artist=CMF (Ger)
Album=Show Me To Laugh (Demo)
Tracknumber=02
Year=1995
Genre=Metal



Register


Thanks:
Go to the top of the page
  Insert nick Quick quote
+Quote Post

Reply to this topicStart new topic
1 User(s) are reading this topic (1 Guests and 0 Anonymous Users)
0 Members:

 



- Lo-Fi Version Support form
Copyrights and abuse reports form
Time is now: 16th January 2022 - 19:54:38