Welcome Guest ( Log In | Register )

> Releases Upload / Добавление релизов

Добавить релиз тут / Click here to add release
Рекомендованные обменники / Recommended file shares

> Ordinul Negru - A Sojourner Wandering Through The Barren Openness [ep] (2021), Black Metal (D)
post Nov 27 2021, 16:24:32
Post #1

funeral doom fan
Group Icon
Group: S-moderation team
Posts: 5,387
Releases: 3043
From: Ростов-на-Дону
On Forums: 16 years 2 weeks
Thanks: 58118 time(s)
Russian Federation


(IMG:http://metalarea.org/images/audiocovers/2021_Nov/acov_tid358911_thumb.jpg)

*Artist: Ordinul Negru
*Album: A Sojourner Wandering Through The Barren Openness [ep]
*Year: 2021
*Genre: Black Metal
*Country: Romania (IMG:http://metalarea.org/forum/style_images/flags/Romania.png)
*Format: mp3@CBR320kbps
*Size: 52MB

Tracklist:
1. A Sojourner Wandering Through the Barren Openness 22:33
******************************
Total playing time: 22:33



Technical info
(IMG:http://metalarea.org/images/spectrogram/2021_Nov/adbda603bbd1b9bb678a1ec3b41e1738.png)
Input File: 01 - A Sojourner Wandering Through the Barren Openness.mp3
Channels : 2
Sample Rate : 44100
Precision : 16-bit
Duration : 00:22:33.80 = 59702360 samples = 101535 CDDA sectors
File Size : 54.2M
Bit Rate : 320k
Sample Encoding: MPEG audio (layer I, II or III)
Comments :
Title=A Sojourner Wandering Through the Barren Openness
Artist=Ordinul Negru
Album=A Sojourner Wandering Through the Barren Openness
Tracknumber=01
Year=2021



Register


Go to the top of the page
  Insert nick Quick quote
+Quote Post
 
Start new topic
Replies (1 - 2)
post Nov 27 2021, 16:41:35
Post #2

Три Литра
***
Group: Завсегдатай
Posts: 299
Releases: 0
On Forums: 3 years 6 months
Thanks: 120 time(s)
Mexico


Amazing Romanian black metal with atmospheric touches like keyboards and female vocals. This is their longest song to date, surpassing even Poems of a Rooted Blade.


Thanks:
(1) stormhatt,
Go to the top of the page
  Insert nick Quick quote
+Quote Post
post Nov 28 2021, 17:41:19
Post #3

Пять Литров
*****
Group: Металариец
Posts: 433
Releases: 0
On Forums: 7 months 4 days
Thanks: 312 time(s)
Unknown


Эти румыны особой популярностью похвастаться не могут, но у своего тематического слушателя они на слуху и даже в почёте. На данном EP представлен мрачный Блэк Метал с призрачной атмосферой, характерной для их альбомов. Разве что звук здесь стал гораздо чище, добавились заходы в совсем лёгкую экспериментальность (за счёт гитарных дел) ну и добавилось некоторое количество "фишек": женский вокал, разнообразные вокалы мужские, электронные куски. Группа растет композиционно, хорошо это или плохо решать каждому самостоятельно. Но, к концу меня этот миник слегка утомил.
Go to the top of the page
  Insert nick Quick quote
+Quote Post

Reply to this topicStart new topic
1 User(s) are reading this topic (1 Guests and 0 Anonymous Users)
0 Members:

 



- Lo-Fi Version Support form
Copyrights and abuse reports form
Time is now: 16th January 2022 - 20:59:43