Welcome Guest ( Log In | Register )

> Redemptor - Agonia (2021), Technical Death Metal (D6)
post Dec 1 2021, 06:45:32
Post #1

Правь статус, ####!111
**************
Group: Металариец
Posts: 4,127
Releases: 2594
On Forums: 12 years 2 weeks
Thanks: 47269 time(s)
Russian Federation


(IMG:https://metalarea.org/images/audiocovers/2021_Dec/acov_tid359024_thumb.jpg)

*Artist: Redemptor
*Album: Agonia
*Year: 2021
*Genre: Technical Death Metal
*Country: Poland (IMG:https://metalarea.org/forum/style_images/flags/Poland.png)
*Format: mp3@CBR320kbps
*Size: 100MB

Tracklist:
01.Tectonic Plates 05:01
02.Potion Of The Skies 05:55
03.TAR 03:55
04.Further From Ordeal 04:35
05.Excursus Ignis 04:25
06.Aurora 02:29
07.Debris 05:06
08.Wounds Unhealed 05:22
09.Les Ruines De Pompei 06:36
******************************
Total playing time: 43:24



Technical info
(IMG:https://metalarea.org/images/spectrogram/2021_Dec/a078953ac5c83fccab6e198141cd34e7.png)
Input File: 03. TAR.mp3
Channels : 2
Sample Rate : 44100
Precision : 16-bit
Duration : 00:03:55.37 = 10379817 samples = 17652.8 CDDA sectors
File Size : 9.57M
Bit Rate : 325k
Sample Encoding: MPEG audio (layer I, II or III)
Comments :
Title=TAR
Artist=Redemptor
Album=Agonia
Tracknumber=03
Year=2021
Genre=Technical Death Metal



Register


Go to the top of the page
  Insert nick Quick quote
+Quote Post
 
Start new topic
Replies (1 - 3)
post Dec 2 2021, 12:16:16
Post #2

Четыре Литра
****
Group: Металариец
Posts: 373
Releases: 0
From: TheМля
On Forums: 16 years 2 months
Thanks: 128 time(s)
Belarus


Вполне слушабельные поляки.
Go to the top of the page
  Insert nick Quick quote
+Quote Post
post Dec 3 2021, 05:43:04
Post #3

Морской Волк
*******
Group: Металариец
Posts: 765
Releases: 0
From: Питер
On Forums: 14 years 1 month
Thanks: 417 time(s)
Russian Federation


ЦИТАТА(dimpa @ Dec 2 2021, 14:16:16) *
Вполне слушабельные поляки.

Первый альбом почти шедевр, дальше УГ. (IMG:style_emoticons/default/22.gif)
Go to the top of the page
  Insert nick Quick quote
+Quote Post
post Dec 3 2021, 11:33:05
Post #4

Четыре Литра
****
Group: Металариец
Posts: 373
Releases: 0
From: TheМля
On Forums: 16 years 2 months
Thanks: 128 time(s)
Belarus


Немного все-таки скучновато. Все не плохо, но не запоминается.


Thanks:
(1) Shadowman,
Go to the top of the page
  Insert nick Quick quote
+Quote Post

Reply to this topicStart new topic
2 User(s) are reading this topic (2 Guests and 0 Anonymous Users)
0 Members:

 



- Lo-Fi Version Support form
Copyrights and abuse reports form
Time is now: 3rd December 2022 - 15:59:01