Welcome Guest ( Log In | Register )

> Releases Upload / Добавление релизов

Добавить релиз тут / Click here to add release
Рекомендованные обменники / Recommended file shares

> Demonstealer - The Holocene Termination [ep] (2021), Death/Black/Thrash Metal (D5)
post Dec 2 2021, 13:48:36
Post #1

Правь статус, ####!111
**************
Group: Металариец
Posts: 28,587
Releases: 20922
From: Г.Харьков
On Forums: 9 years 8 months
Thanks: 427834 time(s)
Unknown


(IMG:https://metalarea.org/images/audiocovers/2021_Dec/acov_tid359070_thumb.jpg)

*Artist: Demonstealer
*Album: The Holocene Termination [ep]
*Year: 2021
*Genre: Death/Black/Thrash Metal
*Country: India (IMG:https://metalarea.org/forum/style_images/flags/India.png)
*Format: mp3@CBR320kbps
*Size: 44MB

Tracklist:
01. The Holocene Termination 04:16
02. An Epoch of Degradation 04:56
03. From Extinction Begins Evolution 05:30
04. What She Creates, She Will Destroy 04:15
******************************
Total playing time: 18:57




Extended info
The Demonstealer All instruments, Vocals (1998-present)
See also: Demonic Resurrection, Solus ex Inferis, Targe, ex-Infinite Hate Project, ex-Reptilian Death, ex-Workshop, ex-Albatross, ex-Hellwind, ex-Kinky Ski Munkey, ex-Ramshackle, ex-Raven Dark


Technical info
(IMG:https://metalarea.org/images/spectrogram/2021_Dec/7be7d62932a3ee485068cf93273aa9a3.png)
Input File: 03. From Extinction Begins Evolution.mp3
Channels : 2
Sample Rate : 44100
Precision : 16-bit
Duration : 00:05:30.18 = 14561070 samples = 24763.7 CDDA sectors
File Size : 13.3M
Bit Rate : 323k
Sample Encoding: MPEG audio (layer I, II or III)
Comments :
Title=From Extinction Begins Evolution
Artist=䘀愀戀椀漀 䈀愀爀琀漀氀攀琀琀椀
Album=The Holocene Termination
Tracknumber=3
Year=2021
Discnumber=1/1



Register

Register

Register


Go to the top of the page
  Insert nick Quick quote
+Quote Post
 
Start new topic
Replies (1 - 4)
post Dec 4 2021, 12:21:19
Post #2

Три Литра
***
Group: Завсегдатай
Posts: 211
Releases: 0
On Forums: 16 years 1 day
Thanks: 34 time(s)
Russian Federation


Also at Demonstealer - The Holocene Termination [ep] (2021)


Thanks:
Go to the top of the page
  Insert nick Quick quote
+Quote Post
post Dec 5 2021, 23:01:22
Post #3

Правь статус, ####!111
**************
Group: Металариец
Posts: 2,795
Releases: 0
On Forums: 6 years 8 months
Thanks: 3686 time(s)
Russian Federation


Третий пошёл (IMG:style_emoticons/default/23.gif)
Остановитесь


Thanks:
Go to the top of the page
  Insert nick Quick quote
+Quote Post
post Dec 7 2021, 03:05:03
Post #4

\m/
Group Icon
Group: S-moderation team
Posts: 7,982
Releases: 19
From: Петропавловск-Камчатский
On Forums: 12 years 7 months
Thanks: 8114 time(s)
Russian Federation


Added links by wolfskaiser
Go to the top of the page
  Insert nick Quick quote
+Quote Post
post Dec 7 2021, 03:05:19
Post #5

\m/
Group Icon
Group: S-moderation team
Posts: 7,982
Releases: 19
From: Петропавловск-Камчатский
On Forums: 12 years 7 months
Thanks: 8114 time(s)
Russian Federation


Added links by kefka
Go to the top of the page
  Insert nick Quick quote
+Quote Post

Reply to this topicStart new topic
1 User(s) are reading this topic (1 Guests and 0 Anonymous Users)
0 Members:

 



- Lo-Fi Version Support form
Copyrights and abuse reports form
Time is now: 24th January 2022 - 14:35:13