Welcome Guest ( Log In | Register )

> И неформату есть предел.

Рэп/хип-хоп/шансон/поп удаляются. Для них есть свои порталы.

> Devin Townsend - The Puzzle (2021), Progressive Rock/Ambient (D)
post Dec 3 2021, 13:09:33
Post #1

Правь статус, ####!111
**************
Group: Металариец
Posts: 49,715
Releases: 901
On Forums: 12 years 7 months
Thanks: 45929 time(s)
Russian Federation


(IMG:https://metalarea.org/images/audiocovers/2021_Dec/acov_tid359146_thumb.jpg)

*Artist: Devin Townsend
*Album: The Puzzle
*Year: 2021
*Genre: Progressive Rock/Ambient
*Country: Canada (IMG:https://metalarea.org/forum/style_images/flags/Canada.png)
*Format: mp3@CBR320kbps
*Size: 150MB

Tracklist:
1. Chromatic Ridge 03:44
2. Life Is But A Dream 03:30
3. Yucky Lung 01:23
4. Kittenhead 01:13
5. Shark In The Ice 01:49
6. Devil In The Details 00:58
7. Hammerhead Sugarplum 03:47
8. Me And The Moon 04:12
9. Anxiety In Pyjamas 03:29
10. The Yugas 03:01
11. Albert Hall 03:59
12. Starchasm 03:59
13. Perfect Owl 02:18
14. Maybe Over The Void 02:56
15. Light Year Whale 04:31
16. FrogFlowers 01:11
17. Mother 04:28
18. Southern Sky Geometry 02:11
19. The Puzzle 05:23
20. Monuments Of Glitch 07:23
******************************
Total playing time: 1:05:25

(IMG:https://metalarea.org/images/youtube.png)

Technical info
(IMG:https://metalarea.org/images/spectrogram/2021_Dec/a98285626256ce58341fa7839839daf2.png)
Input File: 01 Chromatic Ridge.mp3
Channels : 2
Sample Rate : 44100
Precision : 16-bit
Duration : 00:03:43.88 = 9873284 samples = 16791.3 CDDA sectors
File Size : 9.00M
Bit Rate : 322k
Sample Encoding: MPEG audio (layer I, II or III)
Comments :
Title=Chromatic Ridge
Artist=Devin Townsend
Album=The Puzzle
Tracknumber=1/20
Year=2021
Genre=Ambient
Discnumber=1/1



Register


Go to the top of the page
  Insert nick Quick quote
+Quote Post
 
Start new topic
Replies (1 - 2)
post Dec 5 2021, 11:04:38
Post #2

Правь статус, ####!111
**************
Group: Металариец
Posts: 49,715
Releases: 901
On Forums: 12 years 7 months
Thanks: 45929 time(s)
Russian Federation


Обложка хороша, а вот музыка скушновата здесь...
Go to the top of the page
  Insert nick Quick quote
+Quote Post
post Dec 14 2021, 14:11:00
Post #3

Три Литра
***
Group: Завсегдатай
Posts: 250
Releases: 0
From: Kiev
On Forums: 13 years 2 weeks
Thanks: 51 time(s)
Ukraine


ну так он и пишет в превью на ютубе что это не полноценный альбом а так баловство
Go to the top of the page
  Insert nick Quick quote
+Quote Post

Reply to this topicStart new topic
1 User(s) are reading this topic (1 Guests and 0 Anonymous Users)
0 Members:

 



- Lo-Fi Version Support form
Copyrights and abuse reports form
Time is now: 20th January 2022 - 23:55:13