Welcome Guest ( Log In | Register )

> 

Здесь релизы с живыми прямыми ссылками на lossless

> N█O - Fallen (2021), Atmospheric Black Metal
post Dec 3 2021, 20:26:41
Post #1

Литр
*
Group: Подсевший
Posts: 78
Releases: 15
On Forums: 8 years 4 months
Thanks: 527 time(s)
Norway


(IMG:http://metalarea.org/images/audiocovers/2021_Dec/acov_tid359162_thumb.jpg)

*Artist: N█O
*Album: Fallen
*Year: 2021
*Genre: Atmospheric Black Metal
*Country: Ukraine (IMG:http://metalarea.org/forum/style_images/flags/Ukraine.png)
*Format: mp3@CBR320kbps
*Size: 98MB

Tracklist:
1. Piercing Truth 05:16
2. Martyr 08:40
3. Surrender 07:24
4. Escape 07:51
5. Disillusionment 06:22
6. Misguiding Star 06:59
******************************
Total playing time: 42:32

(IMG:http://metalarea.org/images/youtube.png)

Extended info


Technical info
(IMG:http://metalarea.org/images/spectrogram/2021_Dec/27f7f9484ef61cf289390099d9aed609.png)
Input File: 02. Martyr.mp3
Channels : 2
Sample Rate : 44100
Precision : 16-bit
Duration : 00:08:40.52 = 22954976 samples = 39039.1 CDDA sectors
File Size : 21.0M
Bit Rate : 323k
Sample Encoding: MPEG audio (layer I, II or III)
Comments :
Title=Martyr
Artist=N█O
Album=Fallen
Tracknumber=2/6
Year=2021
Discnumber=1/1



Register


Go to the top of the page
  Insert nick Quick quote
+Quote Post
 
Start new topic
Replies (1 - 8)
post Dec 5 2021, 17:39:54
Post #2

Common dweller of hell
**************
Group: Металариец
Posts: 4,489
Releases: 12
From: Dnipro
On Forums: 14 years 4 months
Thanks: 1778 time(s)
Ukraine


Ого что вышло!!! Предыдущий у них был просто шикарен. (IMG:style_emoticons/default/27.gif)
Go to the top of the page
  Insert nick Quick quote
+Quote Post
post Dec 5 2021, 17:41:36
Post #3

Мегаманьяк
***********
Group: Металариец
Posts: 1,835
Releases: 0
From: Мелитополь
On Forums: 14 years 10 months
Thanks: 1315 time(s)
Russian Federation


Вот что это за хрень посредине? Как это вообще читать?


Thanks:
(1) Mencae77,
Go to the top of the page
  Insert nick Quick quote
+Quote Post
post Dec 5 2021, 17:51:14
Post #4

Ёлд ХеллоВяйне
Group Icon
Group: V.I.P
Posts: 33,803
Releases: 144
From: Питер
On Forums: 16 years 1 month
Thanks: 21246 time(s)
Russian Federation


QUOTE(Penetralia @ 5th December 2021 - 19:41:36) *
Как это вообще читать?


Судя по мордокниге — просто NO.
Go to the top of the page
  Insert nick Quick quote
+Quote Post
post Dec 5 2021, 17:58:12
Post #5

Шесть Литров
******
Group: Металариец
Posts: 526
Releases: 0
On Forums: 1 year 5 months
Thanks: 420 time(s)
Unknown


Какое то туповатое название. А вот музыка вполне себе неплохая.
Go to the top of the page
  Insert nick Quick quote
+Quote Post
post Dec 5 2021, 18:14:34
Post #6

Мегаманьяк
***********
Group: Металариец
Posts: 1,835
Releases: 0
From: Мелитополь
On Forums: 14 years 10 months
Thanks: 1315 time(s)
Russian Federation


ЦИТАТА(Hexer @ Dec 5 2021, 18:58:12) *
Какое то туповатое название. А вот музыка вполне себе неплохая.
На прошлом альбоме было точно также (IMG:style_emoticons/default/1488.gif)
Go to the top of the page
  Insert nick Quick quote
+Quote Post
post Dec 5 2021, 18:20:54
Post #7

Шесть Литров
******
Group: Металариец
Posts: 526
Releases: 0
On Forums: 1 year 5 months
Thanks: 420 time(s)
Unknown


ЦИТАТА(Penetralia @ Dec 5 2021, 18:14:34) *
На прошлом альбоме было точно также (IMG:style_emoticons/default/1488.gif)


Ну, тот альбом я не слышал, но охотно верю
По тупым названиям, по мне первое место занимает DSBM проект который то ли "...", то ли ",,," вот где феерический полет мысли и фантазия (IMG:style_emoticons/default/headcrab.png)
Go to the top of the page
  Insert nick Quick quote
+Quote Post
post Dec 5 2021, 19:49:39
Post #8
BAN
RO till
Jun 8 2022, 09:57:02



Спасибо, отличный подгон! На дебютнике музыка была весьма интересной, надеюсь, что и здесь не подкачали.
Go to the top of the page
  Insert nick Quick quote
+Quote Post
post Dec 22 2021, 03:04:17
Post #9

FOLK METAL FEVER
**************
Group: Металариец
Posts: 2,339
Releases: 6
From: Kyiv
On Forums: 15 years 3 weeks
Thanks: 317 time(s)
Ukraine


Шикарно! Перевершили очікування. 2 і 3 треки - хітяри!:)
Go to the top of the page
  Insert nick Quick quote
+Quote Post

Reply to this topicStart new topic
2 User(s) are reading this topic (2 Guests and 0 Anonymous Users)
0 Members:

 



- Lo-Fi Version Support form
Copyrights and abuse reports form
Time is now: 30th November 2022 - 08:58:00