Welcome Guest ( Log In | Register )

> Releases Upload / Добавление релизов

Добавить релиз тут / Click here to add release
Рекомендованные обменники / Recommended file shares

> Septris - 5 (2021), Epic Heavy Metal
post Dec 5 2021, 06:32:00
Post #1

Правь статус, ####!111
**************
Group: Металариец
Posts: 28,529
Releases: 20890
From: Г.Харьков
On Forums: 9 years 8 months
Thanks: 426951 time(s)
Unknown


(IMG:https://metalarea.org/images/audiocovers/2021_Dec/acov_tid359209_thumb.jpg)

*Artist: Septris
*Album: 5
*Year: 2021
*Genre: Epic Heavy Metal
*Country: Switzerland (IMG:https://metalarea.org/forum/style_images/flags/Switzerland.png)
*Format: mp3@CBR320kbps
*Size: 101MB

Tracklist:
1. The Fate Denier 05:16
2. Until Daylight 06:40
3. Edge of the World 05:42
4. Another Chance 03:56
5. Forsaken One 05:30
6. My Blood and Tears 05:48
7. Guide the Way 06:42
8. Sands of Time 04:30
******************************
Total playing time: 44:04



Extended info
Grégory Sandoz - Vocals, Lyrics
David Perret - Lead Guitar, Backing Vocals
Yann Baumberger - Drums
Johan Måne - Bass, Rythm Guitar, Backing Vocals
Nathan Storni - Additionnal backing vocals


Technical info
(IMG:https://metalarea.org/images/spectrogram/2021_Dec/6e41cf5a1b8bb7217ee9c1447abc84cd.png)
Input File: 07 - Guide The Way.mp3
Channels : 2
Sample Rate : 44100
Precision : 16-bit
Duration : 00:06:42.26 = 17739446 samples = 30169.1 CDDA sectors
File Size : 16.2M
Bit Rate : 322k
Sample Encoding: MPEG audio (layer I, II or III)
Comments :
Title=Guide The Way
Artist=Septris
Album=5
Tracknumber=7/8
Year=2021



Register


Go to the top of the page
  Insert nick Quick quote
+Quote Post
 
Start new topic
Replies (1 - 2)
post Dec 5 2021, 09:13:38
Post #2

Правь статус, ####!111
**************
Group: Металариец
Posts: 49,710
Releases: 900
On Forums: 12 years 7 months
Thanks: 45912 time(s)
Russian Federation


(IMG:https://b.radikal.ru/b10/2112/44/7e10a7f6858c.jpg)
Go to the top of the page
  Insert nick Quick quote
+Quote Post
post Dec 7 2021, 16:39:03
Post #3

Слава всем нам,например!
**************
Group: Металариец
Posts: 2,656
Releases: 33
From: Русская Москва
On Forums: 15 years 7 months
Thanks: 1446 time(s)
Russian Federation


ЦИТАТА(andgrek28 @ Dec 7 2021, 17:51:31) *
Что-то в этом есть,пока не могу понять,что,вникаю (IMG:style_emoticons/default/21.gif)


Да ничего тут нет.Ни драйва,ни хитов и странный вокалист.
Go to the top of the page
  Insert nick Quick quote
+Quote Post

Reply to this topicStart new topic
1 User(s) are reading this topic (1 Guests and 0 Anonymous Users)
0 Members:

 



- Lo-Fi Version Support form
Copyrights and abuse reports form
Time is now: 19th January 2022 - 18:47:24