Welcome Guest ( Log In | Register )

> Releases Upload / Добавление релизов

Добавить релиз тут / Click here to add release
Рекомендованные обменники / Recommended file shares

> Repressor - Monguitê (2021), Thrash Metal (D4)
post Dec 8 2021, 18:10:26
Post #1

Правь статус, ####!111
**************
Group: Металариец
Posts: 28,506
Releases: 20866
From: Г.Харьков
On Forums: 9 years 8 months
Thanks: 426499 time(s)
Unknown


(IMG:https://metalarea.org/images/audiocovers/2021_Dec/acov_tid359281_thumb.jpg)

*Artist: Repressor
*Album: Monguitê
*Year: 2021
*Genre: Thrash Metal
*Country: Brazil (IMG:https://metalarea.org/forum/style_images/flags/Brazil.png)
*Format: mp3@CBR320kbps
*Size: 72MB

Tracklist:
1. Arrastão
2. Oligarquia em Vertigem
3. Invisíveis
4. Neo-Colônia
5. O Homem no Castelo de Vidro
6. Tamo Aí
7. Areia Movediça
8. The Falcon
9. Mandala
******************************
Total playing time: 30:39



Extended info
Gabriel Belão Bass (2015-present)
Gabriel Russel Drums (2015-present)
See also: ex-Atria
Guilherme Marchi Guitars, Vocals (2015-present)
Caio Kattenbach Guitars (2018-present)
See also: ex-BlackForce


Technical info
(IMG:https://metalarea.org/images/spectrogram/2021_Dec/f725ab3a5c78109220bca994a06bf47f.png)
Input File: 04 - Neo-Colônia.mp3
Channels : 2
Sample Rate : 44100
Precision : 16-bit
Duration : 00:04:28.08 = 11822460 samples = 20106.2 CDDA sectors
File Size : 10.9M
Bit Rate : 325k
Sample Encoding: MPEG audio (layer I, II or III)
Comments :
Title=Neo-Colônia
Artist=Repressor
Album=Monguitê
Tracknumber=4/9
Year=2021



Register


Go to the top of the page
  Insert nick Quick quote
+Quote Post
 
Start new topic
Replies (1 - 1)
post Dec 10 2021, 08:48:38
Post #2

Два Литра
**
Group: Завсегдатай
Posts: 165
Releases: 5
From: Москва
On Forums: 14 years 11 months
Thanks: 147 time(s)
Russian Federation


https://www.youtube.com/watch?v=2P9JCL3D9YI...dcg&index=3


Thanks:
Go to the top of the page
  Insert nick Quick quote
+Quote Post

Reply to this topicStart new topic
1 User(s) are reading this topic (1 Guests and 0 Anonymous Users)
0 Members:

 



- Lo-Fi Version Support form
Copyrights and abuse reports form
Time is now: 16th January 2022 - 19:58:40