Welcome Guest ( Log In | Register )

> Releases Upload / Добавление релизов

Добавить релиз тут / Click here to add release
Рекомендованные обменники / Recommended file shares

> Foreign Waves - Hivemind (2021), Progressive Metal
post Dec 9 2021, 01:21:18
Post #1

Восемь Литров
********
Group: Металариец
Posts: 839
Releases: 705
On Forums: 8 months 4 weeks
Thanks: 18002 time(s)
United States


(IMG:https://metalarea.org/images/audiocovers/2021_Dec/acov_tid359304_thumb.jpg)

*Artist: Foreign Waves
*Album: Hivemind
*Year: 2021
*Genre: Progressive Metal
*Country: United States (IMG:https://metalarea.org/forum/style_images/flags/United%20States.png)
*Format: mp3@CBR320kbps
*Size: 147MB

Tracklist:
01. Adrift
02. Remnants
03. Recovery
04. Manifest
05. Resilient
06. Reanimate
07. Sympathize
08. Empathize
09. Anomalous
10. Ephemeral
******************************
Total playing time: 59:07



Technical info
(IMG:https://metalarea.org/images/spectrogram/2021_Dec/13396fa47e01a3c705296acb0b6f1015.png)
Input File: 02. Remnants.mp3
Channels : 2
Sample Rate : 44100
Precision : 16-bit
Duration : 00:07:02.22 = 18619770 samples = 31666.3 CDDA sectors
File Size : 16.9M
Bit Rate : 321k
Sample Encoding: MPEG audio (layer I, II or III)
Comments :
Title=Remnants
Artist=Foreign Waves
Album=Hivemind
Tracknumber=02/10
Year=2021



Register


Go to the top of the page
  Insert nick Quick quote
+Quote Post
 
Start new topic
Replies (1 - 1)
post Dec 10 2021, 09:19:51
Post #2

21st Century Schizoid Man
**************
Group: Металариец
Posts: 7,134
Releases: 89
From: Pdmsk
On Forums: 13 years 8 months
Thanks: 6047 time(s)
Russian Federation





Thanks:
Go to the top of the page
  Insert nick Quick quote
+Quote Post

Reply to this topicStart new topic
1 User(s) are reading this topic (1 Guests and 0 Anonymous Users)
0 Members:

 



- Lo-Fi Version Support form
Copyrights and abuse reports form
Time is now: 24th January 2022 - 21:32:12