Welcome Guest ( Log In | Register )

> Releases Upload / Добавление релизов

Добавить релиз тут / Click here to add release
Рекомендованные обменники / Recommended file shares

 
Reply to this topicStart new topic
> Crucifixxx Sodomy - Rare Rehearsal [bootleg] (2008), Black Metal/Punk (D)
post Dec 9 2021, 11:33:20
Post #1

Маньяк
**********
Group: Металариец
Posts: 1,353
Releases: 282
On Forums: 2 years 11 months
Thanks: 4043 time(s)
Canada


(IMG:https://metalarea.org/images/audiocovers/2021_Dec/acov_tid359309_thumb.jpg)

*Artist: Crucifixxx Sodomy
*Album: Rare Rehearsal [bootleg]
*Year: 2008
*Genre: Black Metal/Punk
*Country: Canada (IMG:https://metalarea.org/forum/style_images/flags/Canada.png)
*Format: mp3@CBR320kbps
*Size: 105MB

Tracklist:
1. Crucifixxx Sodomy 04:44
2. Hellhouse 07:43
3. Hellhouse 06:54
4. Pigs Song 09:42
5. Pigs Song 04:03
6. Moon Of The Wolf [Warlock Moon cover] 05:41
7. Scylla [Warlock Moon cover] 06:15
8. The Slums of Israel [Warlock Moon cover] [cuts off] 00:50
******************************
Total playing time: 45:52

Extended info
Country: Canada (Toronto, Ontario)

no scans

poor sounding recording
2008-02-23 rehearsal

tape rip by canadaspaceman

There was no audio in one channel, so created a "stero" mix from the mono recording.

This sounds a lot more stable and understandable than the live tapes.
From this tape, i was able to figure out what was happening onthe "offical" releases.

I am guessing this early lineup had:
Lord Shatanas Whorebanger - Vocals (2007-2011)
Keegan Khaos - Guitars (2007-?) [ex-Anencephaly]

Ladon - Bass (2007-2008) [Warlock Moon guitarist, Jinn Arcana]
Warlock - Drums (2007-2008) [ex-Dead Shall Rise, Warlock Moon, ShadowWolf]



https://www.metal-archives.com/bands/Crucifixxx_Sodomy/3540311971

Status: Split-up
Formed in: 2007
Last label: Skull Fucking Metal

Live at Duffy's Tavern Live album 2010
Banned from the Hard Luck Bar 2009 Live album 2010
Satanic Waste Removal Unit Live album 2010
Uruk Hai / Crucifixxx Sodomy Split 2012


Technical info
(IMG:https://metalarea.org/images/spectrogram/2021_Dec/69f0073d9ac75734d0633b183ef7c85f.png)
Input File: 1. Crucifixxx Sodomy.mp3
Channels : 2
Sample Rate : 44100
Precision : 16-bit
Duration : 00:04:44.07 = 12527663 samples = 21305.5 CDDA sectors
File Size : 11.4M
Bit Rate : 322k
Sample Encoding: MPEG audio (layer I, II or III)
Comments :
Artist=Crucifixxx Sodomy
Album=2008-02-23 Rehearsal
Year=2008
Genre=Black Metal/Punk



Register


Go to the top of the page
  Insert nick Quick quote
+Quote Post

Reply to this topicStart new topic
1 User(s) are reading this topic (1 Guests and 0 Anonymous Users)
0 Members:

 



- Lo-Fi Version Support form
Copyrights and abuse reports form
Time is now: 16th January 2022 - 19:10:50