Welcome Guest ( Log In | Register )

> Thalarion - Dying On The Scorched Plains (2021), Melodic Death/Gothic/Doom Metal (D)
post Dec 9 2021, 18:11:22
Post #1

Правь статус, ####!111
**************
Group: Металариец
Posts: 30,377
Releases: 22365
From: Г.Харьков
On Forums: 10 years 4 months
Thanks: 467169 time(s)
Unknown


(IMG:https://metalarea.org/images/audiocovers/2021_Dec/acov_tid359348_thumb.jpg)

*Artist: Thalarion
*Album: Dying On The Scorched Plains
*Year: 2021
*Genre: Melodic Death/Gothic/Doom Metal
*Country: Slovakia (IMG:https://metalarea.org/forum/style_images/flags/Slovakia.png)
*Format: mp3@CBR320kbps
*Size: 109MB

Tracklist:
1. Prelude to Dolorous Scenes 01:16
2. Burning Pile 04:33
3. Space in Between 05:15
4. Dead but Still in My Heart 05:29
5. Fairy Garden 06:09
6. Wandering Minstrel 06:09
7. Sub Rosa 04:16
8. Back to the Light 03:57
9. Dying on the Scorged Plains 04:06
10. Into the Nowhere 06:11
******************************
Total playing time: 47:21




Extended info
Juraj Schlosser Guitars
Peter Schlosser Drums
Peter Dvorák Keyboards
Peter Bartakovič Bass, Guitars, Guitars (acoustic)
Juraj Grežďo Vocals
Petronela Hederova Vocals


Technical info
(IMG:https://metalarea.org/images/spectrogram/2021_Dec/6f30b7412c9ceb6fdc48a6e7dbb2d9bb.png)
Input File: 04. Dead but Still in My Heart.mp3
Channels : 2
Sample Rate : 44100
Precision : 16-bit
Duration : 00:05:28.00 = 14464800 samples = 24600 CDDA sectors
File Size : 13.2M
Bit Rate : 323k
Sample Encoding: MPEG audio (layer I, II or III)
Comments :
Title=Dead but Still in My Heart
Artist=Thalarion
Album=Dying on the Scorched Plains
Tracknumber=4
Year=2021
Discnumber=1



Register


Go to the top of the page
  Insert nick Quick quote
+Quote Post
 
Start new topic
Replies (1 - 8)
post Dec 10 2021, 04:50:15
Post #2

Шесть Литров
******
Group: Металариец
Posts: 517
Releases: 0
On Forums: 4 years 8 months
Thanks: 170 time(s)
Belarus


Похоже на какой-то джаз в тяжелой форме. Постоянные вариации и смешение стилей. По-настоящему жутко и отвратительно.
Go to the top of the page
  Insert nick Quick quote
+Quote Post
post Dec 10 2021, 08:50:51
Post #3

Тридцать три года на борту "тяжёлого" крейсера
**************
Group: Металариец
Posts: 2,932
Releases: 0
From: Питер
On Forums: 15 years 3 months
Thanks: 927 time(s)
Russian Federation


Ох, как долго молчали..Когда-то неплохие работы выпускали
Go to the top of the page
  Insert nick Quick quote
+Quote Post
post Dec 10 2021, 11:05:03
Post #4

Шесть Литров
******
Group: Металариец
Posts: 637
Releases: 5
On Forums: 12 years 8 months
Thanks: 435 time(s)
Russian Federation


В свое время запомнились композицией 911...что-то там ещё, вступление которой слизано с лучшего трека Арктуруса - To Thou Who Dwellest in the Night чуть больше, чем полностью.
Go to the top of the page
  Insert nick Quick quote
+Quote Post
post Dec 10 2021, 16:23:40
Post #5

к приему виски готов
*********
Group: Металариец
Posts: 914
Releases: 3
From: Украина
On Forums: 13 years 7 months
Thanks: 542 time(s)
Ukraine


https://www.youtube.com/watch?v=CPw4s7qnXBY


Thanks:
Go to the top of the page
  Insert nick Quick quote
+Quote Post
post Dec 10 2021, 20:10:12
Post #6

Мегаманьяк
***********
Group: Металариец
Posts: 1,839
Releases: 296
On Forums: 13 years 10 months
Thanks: 7274 time(s)
Russian Federation


FLAC tracks
Register


Go to the top of the page
  Insert nick Quick quote
+Quote Post
post Dec 11 2021, 15:50:59
Post #7

Common dweller of hell
**************
Group: Металариец
Posts: 4,393
Releases: 12
From: Dnipro
On Forums: 14 years 2 months
Thanks: 1744 time(s)
Ukraine


Go to the top of the page
  Insert nick Quick quote
+Quote Post
post Dec 11 2021, 16:10:58
Post #8
BAN
Banned till
Oct 3 2022, 17:14:16



ЦИТАТА(sadmannn @ Dec 10 2021, 08:50:51) *
Когда-то неплохие работы выпускали

не помню.Когда?
Go to the top of the page
  Insert nick Quick quote
+Quote Post
post Dec 22 2021, 18:56:54
Post #9

FOLK METAL FEVER
**************
Group: Металариец
Posts: 2,323
Releases: 6
From: Kyiv
On Forums: 14 years 10 months
Thanks: 301 time(s)
Ukraine


За 20 лет ничего не изменилось (IMG:style_emoticons/default/smile1.gif)
Go to the top of the page
  Insert nick Quick quote
+Quote Post

Reply to this topicStart new topic
2 User(s) are reading this topic (2 Guests and 0 Anonymous Users)
0 Members:

 



- Lo-Fi Version Support form
Copyrights and abuse reports form
Time is now: 3rd October 2022 - 08:31:39