Welcome Guest ( Log In | Register )

> Releases Upload / Добавление релизов

Добавить релиз тут / Click here to add release
Рекомендованные обменники / Recommended file shares

> Gore Brigade - Gore Brigade [ep] (2021), Old School Death Metal
post Dec 10 2021, 01:18:44
Post #1

Правь статус, ####!111
**************
Group: Металариец
Posts: 28,591
Releases: 20922
From: Г.Харьков
On Forums: 9 years 8 months
Thanks: 427868 time(s)
Unknown


(IMG:https://metalarea.org/images/audiocovers/2021_Dec/acov_tid359356_thumb.jpg)

*Artist: Gore Brigade
*Album: Gore Brigade [ep]
*Year: 2021
*Genre: Old School Death Metal
*Country: Sweden (IMG:https://metalarea.org/forum/style_images/flags/Sweden.png)
*Format: mp3@CBR320kbps
*Size: 35MB

Tracklist:
01. March of the Gore Brigade
02. A Wretched Taste
03. An Army of the Re-animated
04. World Wide Death
05. Show Me the Gore
06. The Rot Becomes You
******************************
Total playing time: 14:36




Extended info
Jonny Pettersson - Vocals
Ludvig Johansson - Guitar
Jon Skäre -Drums


Technical info
(IMG:https://metalarea.org/images/spectrogram/2021_Dec/1e23d845d8b2776abeea6434a23643ed.png)
Input File: 06 - The Rot Becomes You.mp3
Channels : 2
Sample Rate : 44100
Precision : 16-bit
Duration : 00:02:48.55 = 7433099 samples = 12641.3 CDDA sectors
File Size : 6.93M
Bit Rate : 329k
Sample Encoding: MPEG audio (layer I, II or III)
Comments :
Title=The Rot Becomes You
Artist=Gore Brigade
Album=Gore Brigade
Tracknumber=6/1



Register


Go to the top of the page
  Insert nick Quick quote
+Quote Post
 
Start new topic
Replies (1 - 1)
post Dec 10 2021, 09:51:17
Post #2

Маньяк
**********
Group: Металариец
Posts: 1,369
Releases: 1
From: APATIN, SERBIA, АПАТИН, СЕРБИЯ
On Forums: 14 years 3 months
Thanks: 3600 time(s)



Flac

Register


Go to the top of the page
  Insert nick Quick quote
+Quote Post

Reply to this topicStart new topic
1 User(s) are reading this topic (1 Guests and 0 Anonymous Users)
0 Members:

 



- Lo-Fi Version Support form
Copyrights and abuse reports form
Time is now: 24th January 2022 - 20:14:16