Welcome Guest ( Log In | Register )

> Ertha - And The Stars Went Out (2021), Folk/Gothic Metal/Rock
post Dec 11 2021, 16:25:39
Post #1

Правь статус, ####!111
**************
Group: Металариец
Posts: 29,216
Releases: 21435
From: Г.Харьков
On Forums: 10 years 1 week
Thanks: 442691 time(s)
Unknown


(IMG:https://metalarea.org/images/audiocovers/2021_Dec/acov_tid359431_thumb.jpg)

*Artist: Ertha
*Album: And The Stars Went Out
*Year: 2021
*Genre: Folk/Gothic Metal/Rock
*Country: Czech Republic (IMG:https://metalarea.org/forum/style_images/flags/Czech%20Republic.png)
*Format: mp3@CBR320kbps
*Size: 128MB

Tracklist:
1. Resurrected
2. Angel
3. Guiding Star
4. Pilgrim
5. Voiceless Flute
6. Trollbound
7. Skymningen
8. Where the Wolves Are
9. Lost Grace
10. Dominus Hominum
11. Heavenless
******************************
Total playing time: 55:33



Extended info
Eyrah Russe Bass, Vocals
Zelda Violin
Ereis Rayann Vocals


Technical info
(IMG:https://metalarea.org/images/spectrogram/2021_Dec/c61076e62156af6904f4707f86d570be.png)
Input File: 08 - Where the Wolves Are.mp3
Channels : 2
Sample Rate : 44100
Precision : 16-bit
Duration : 00:05:02.70 = 13349070 samples = 22702.5 CDDA sectors
File Size : 12.2M
Bit Rate : 323k
Sample Encoding: MPEG audio (layer I, II or III)
Comments :
Title=Where the Wolves Are
Artist=Ertha
Album=And the Stars Went Out
Tracknumber=8
Year=2021



Register


Go to the top of the page
  Insert nick Quick quote
+Quote Post
 
Start new topic
Replies (1 - 3)
post Dec 13 2021, 07:02:11
Post #2

hearer & reader
**************
Group: Металариец
Posts: 10,279
Releases: 211
From: Moscow
On Forums: 14 years 8 months
Thanks: 12365 time(s)
Russian Federation



мрак


Thanks:
Go to the top of the page
  Insert nick Quick quote
+Quote Post
post Dec 13 2021, 22:24:17
Post #3

Три Литра
***
Group: Завсегдатай
Posts: 281
Releases: 0
On Forums: 4 years 3 months
Thanks: 89 time(s)
Saint Helena


Вот где ныне обитается Жанна Агузарова.

З.Ы. Недурная вещь, между тем


Thanks:
(1) Izverg,
Go to the top of the page
  Insert nick Quick quote
+Quote Post
post Dec 21 2021, 19:33:02
Post #4

Правь статус, ####!111
**************
Group: Металариец
Posts: 2,141
Releases: 0
From: Мытищи
On Forums: 14 years 2 months
Thanks: 1300 time(s)
Russian Federation



Ну хз... Потыкав по разным отрезкам альбома обнаружил разной степени интересности музыку. Вокалистка же откровенно скучна.
Winterdark, вот как раз Агузаровой им и не хватает, получилось бы в стопятьсот раз круче.


Thanks:
Go to the top of the page
  Insert nick Quick quote
+Quote Post

Reply to this topicStart new topic
2 User(s) are reading this topic (2 Guests and 0 Anonymous Users)
0 Members:

 



- Lo-Fi Version Support form
Copyrights and abuse reports form
Time is now: 18th May 2022 - 13:47:00