Welcome Guest ( Log In | Register )

> Unconsecrated - Revel Of The Dead (2021), Death Metal (D4)
post Dec 15 2021, 17:43:17
Post #1

Правь статус, ####!111
**************
Group: Металариец
Posts: 2,943
Releases: 1480
On Forums: 11 years 7 months
Thanks: 29073 time(s)
Russian Federation


(IMG:https://metalarea.org/images/audiocovers/2021_Dec/acov_tid359566_thumb.jpg)

*Artist: Unconsecrated
*Album: Revel Of The Dead
*Year: 2021
*Genre: Death Metal
*Country: Spain (IMG:https://metalarea.org/forum/style_images/flags/Spain.png)
*Format: mp3@CBR320kbps
*Size: 99MB

Tracklist:
1.Reveal Of The Dead 04:35
2.Desecrated 04:23
3.Eternal rest 05:56
4.Immortal Winds 04:35
5.Mortuary Rites 04:20
6.Morbid Revelation 04:48
7.Vomiting Curses 06:21
8.Putrid Evocation 08:01
******************************
Total playing time: 42:59



Extended info
Debut Album with 8 tracks in the vein old vein of Entombed,Dismember,Grave or Carnage.


Technical info
(IMG:https://metalarea.org/images/spectrogram/2021_Dec/4674fd4f61797dba9d54bf49c8a75dab.png)
Input File: 05 Mortuary Rites.mp3
Channels : 2
Sample Rate : 44100
Precision : 16-bit
Duration : 00:04:20.93 = 11506925 samples = 19569.6 CDDA sectors
File Size : 10.7M
Bit Rate : 329k
Sample Encoding: MPEG audio (layer I, II or III)
Comments :
Title=Mortuary Rites
Artist=Unconsecrated
Album=Reveal Of The Dead
Tracknumber=5
Year=2021
Genre=Death Metal



Register

Register


Go to the top of the page
  Insert nick Quick quote
+Quote Post
 
Start new topic
Replies (1 - 5)
post Dec 16 2021, 17:35:56
Post #2

Литр
*
Group: Подсевший
Posts: 69
Releases: 1
From: Harare
On Forums: 12 years 8 months
Thanks: 94 time(s)
Zimbabwe


Отличный "ольдьскуль" (IMG:style_emoticons/default/15.gif)
Go to the top of the page
  Insert nick Quick quote
+Quote Post
post Dec 16 2021, 18:49:48
Post #3

кручу наждак
**************
Group: Металариец
Posts: 5,568
Releases: 107
From: Самара
On Forums: 12 years 1 month
Thanks: 4428 time(s)
Russian Federation


ЦИТАТА
Debut Album with 8 tracks in the vein old vein of Entombed,Dismember,Grave or Carnage.

Досвиданья.
Go to the top of the page
  Insert nick Quick quote
+Quote Post
post Dec 17 2021, 11:59:14
Post #4

Мегаманьяк
***********
Group: Металариец
Posts: 1,705
Releases: 1
From: APATIN, SERBIA, АПАТИН, СЕРБИЯ
On Forums: 14 years 8 months
Thanks: 4970 time(s)



Flac

Register


Go to the top of the page
  Insert nick Quick quote
+Quote Post
post Jan 14 2022, 09:07:25
Post #5

...Only Death Is Real...
**************
Group: Металариец
Posts: 3,071
Releases: 19
On Forums: 11 years 11 months
Thanks: 2029 time(s)
Antarctica


ЦИТАТА(kefka @ Dec 15 2021, 21:43:17) *
Debut Album with 8 tracks in the vein old vein of Entombed,Dismember,Grave or Carnage.

Плюсую. Особенно на первый Entombed похоже. (IMG:style_emoticons/default/20.gif)
Go to the top of the page
  Insert nick Quick quote
+Quote Post
post Jan 14 2022, 11:03:12
Post #6

enrolled in hell
**
Group: Завсегдатай
Posts: 164
Releases: 0
On Forums: 1 year 7 months
Thanks: 123 time(s)
Somalia


Да эти in the vein old vein of Entombed уже по логотипам за километр палятся.
Go to the top of the page
  Insert nick Quick quote
+Quote Post

Reply to this topicStart new topic
1 User(s) are reading this topic (1 Guests and 0 Anonymous Users)
0 Members:

 



- Lo-Fi Version Support form
Copyrights and abuse reports form
Time is now: 1st July 2022 - 05:10:52