Welcome Guest ( Log In | Register )

> Solarus - A Dance With Tragedy (2021), Symphonic/Power Metal
post Dec 16 2021, 14:16:41
Post #1

Serial Uploader
Group Icon
Group: V.I.P
Posts: 39,314
Releases: 37449
From: Lithuania
On Forums: 14 years 5 months
Thanks: 469550 time(s)
Lithuania


(IMG:https://metalarea.org/images/audiocovers/2021_Dec/acov_tid359598_thumb.jpg)

*Artist: Solarus
*Album: A Dance With Tragedy
*Year: 2021
*Genre: Symphonic/Power Metal
*Country: Canada (IMG:https://metalarea.org/forum/style_images/flags/Canada.png)
*Format: mp3@CBR320kbps
*Size: 115MB

Tracklist:
01. Waking Mind 05:13
02. Shades Of Truth 04:52
03. The Keeper 05:40
04. The Wandering 05:35
05. A Dance With Tragedy (feat. Vicky Psarakis) 04:00
06. Guiding Light 04:34
07. Promise Me 03:27
08. Everbound 05:35
09. This Journey That Yet / Remains 08:57
******************************
Total playing time: 47:53


Preview 2
(IMG:https://metalarea.org/images/youtube.png)

Technical info
(IMG:https://metalarea.org/images/spectrogram/2021_Dec/97d5411ab1411d4997a7114884eab564.png)
Input File: 02 - Shades Of Truth.mp3
Channels : 2
Sample Rate : 44100
Precision : 16-bit
Duration : 00:04:52.00 = 12877200 samples = 21900 CDDA sectors
File Size : 11.9M
Bit Rate : 325k
Sample Encoding: MPEG audio (layer I, II or III)
Comments :
Title=Shades Of Truth
Artist=Solarus
Album=A Dance With Tragedy
Tracknumber=2
Year=2021-12-17
Discnumber=1



Register


Go to the top of the page
  Insert nick Quick quote
+Quote Post
 
Start new topic
Replies (1 - 2)
post Jan 7 2022, 16:04:18
Post #2

Ъ
**************
Group: Металариец
Posts: 11,110
Releases: 9
On Forums: 13 years 10 months
Thanks: 2237 time(s)
Sweden


Вокалу дамы немного раздражает, нехватает глубины, в остальном очень приличный альбом, даже жаль что так вышло с вокалом, можно было бы и побольше послушать.


Thanks:
Go to the top of the page
  Insert nick Quick quote
+Quote Post
post Feb 10 2022, 05:57:07
Post #3

i listen to black metal
**************
Group: Металариец
Posts: 3,461
Releases: 144
From: Москва
On Forums: 15 years 11 months
Thanks: 2464 time(s)
Russian Federation


ЦИТАТА(DenisKov @ Jan 7 2022, 18:04:18) *
Вокалу дамы немного раздражает, нехватает глубины, в остальном очень приличный альбом, даже жаль что так вышло с вокалом, можно было бы и побольше послушать.

иногда глубина не нужна
здесь голос и песня твоей соседки девчонки которая рассказывает о своих наивных переживаниях

клип и песня отпад!
в коллекцию)
Go to the top of the page
  Insert nick Quick quote
+Quote Post

Reply to this topicStart new topic
2 User(s) are reading this topic (2 Guests and 0 Anonymous Users)
0 Members:

 



- Lo-Fi Version Support form
Copyrights and abuse reports form
Time is now: 3rd December 2022 - 18:06:56