Welcome Guest ( Log In | Register )

> Archaize - In Dusk We Trust (2021), Groove/Thrash/Death Metal
post Dec 21 2021, 13:30:27
Post #1

Шесть Литров
******
Group: Металариец
Posts: 594
Releases: 42
From: Russia
On Forums: 15 years 7 months
Thanks: 1164 time(s)
Russian Federation


(IMG:http://metalarea.org/images/audiocovers/2021_Dec/acov_tid359777_thumb.jpg)

*Artist: Archaize
*Album: In Dusk We Trust
*Year: 2021
*Genre: Groove/Thrash/Death Metal
*Country: Australia (IMG:http://metalarea.org/forum/style_images/flags/Australia.png)
*Format: mp3@CBR320kbps
*Size: 107MB

Tracklist:
1. Blood Guardians 04:57
2. Death Elemental 05:15
3. I Am Your God 04:16
4. Final Conflict 05:19
5. Mechanical Shift 05:19
6. Incorrect Opinion 05:19
7. Enemy Within 04:59
8. Ghosts in the Blood 05:45
9. The End 06:32
******************************
Total playing time: 47:41



Technical info
(IMG:http://metalarea.org/images/spectrogram/2021_Dec/2e4f4d032abc2a142ebe96301397b8ce.png)
Input File: 02 - Death Elemental.mp3
Channels : 2
Sample Rate : 44100
Precision : 16-bit
Duration : 00:05:15.48 = 13912448 samples = 23660.6 CDDA sectors
File Size : 12.6M
Bit Rate : 320k
Sample Encoding: MPEG audio (layer I, II or III)
Comments :
Title=Death Elemental
Artist=Archaize
Album=In Dusk We Trust
Tracknumber=2
Year=2021
Genre=Thrash/Death Metal



Register


Go to the top of the page
  Insert nick Quick quote
+Quote Post
 
Start new topic
Replies (1 - 1)
post Dec 22 2021, 07:30:53
Post #2

Шесть Литров
******
Group: Металариец
Posts: 682
Releases: 0
From: Ташкент
On Forums: 16 years 2 weeks
Thanks: 224 time(s)
Uzbekistan


Matt Archaize Tyson - Guitars
Christian Machado - Vocals
Evgeny Nesterov - Bass
Dirk Verbeuren - Drums
Edmund Morton - Lyricist

Во флаке бы ещё, если можно)


Thanks:
(1) akym,
Go to the top of the page
  Insert nick Quick quote
+Quote Post

Reply to this topicStart new topic
2 User(s) are reading this topic (2 Guests and 0 Anonymous Users)
0 Members:

 



- Lo-Fi Version Support form
Copyrights and abuse reports form
Time is now: 24th February 2024 - 11:17:44