Welcome Guest ( Log In | Register )

> Muvitium - Under Vemodets Töcken... (2021), Black Metal/Ambient
post Dec 24 2021, 18:49:48
Post #1

I hate you all
**************
Group: Металариец
Posts: 2,972
Releases: 94
From: Ukraine
On Forums: 15 years 1 month
Thanks: 7530 time(s)
Ukraine


(IMG:https://metalarea.org/images/audiocovers/2021_Dec/acov_tid359868_thumb.jpg)

*Artist: Muvitium
*Album: Under Vemodets Töcken...
*Year: 2021
*Genre: Black Metal/Ambient
*Country: Sweden (IMG:https://metalarea.org/forum/style_images/flags/Sweden.png)
*Format: mp3@CBR320kbps
*Size: 106MB

Tracklist:
1. Nattiden Vagga... i Stillhet De Afvlidnas Minne...
2. Natten Giv Ditt Namn... Våldets Styrka Ta...
3. De Jag Minns... Tidlös i Klockverkets Slag...
4. Rista Afv Hat... Eder Hjärtans Fördärv...
******************************
Total playing time: 46:29

Technical info
(IMG:https://metalarea.org/images/spectrogram/2021_Dec/abb20746b9f4ccd4c56d419920d44539.png)
Input File: 01 - Nattiden Vagga... i Stillhet De Afvlidnas Minne....mp3
Channels : 2
Sample Rate : 44100
Precision : 16-bit
Duration : 00:09:34.29 = 25326101 samples = 43071.6 CDDA sectors
File Size : 23.2M
Bit Rate : 324k
Sample Encoding: MPEG audio (layer I, II or III)
Comments :
Title=Nattiden Vagga... i Stillhet De Afvlidnas Minne...
Artist=Muvitium
Album=Under Vemodets Töcken...
Tracknumber=1
Year=2021
Genre=Black Metal



Register


Go to the top of the page
  Insert nick Quick quote
+Quote Post
 
Start new topic
Replies (1 - 2)
post Dec 25 2021, 09:39:11
Post #2

Group: Подсевший
Posts: 40
Releases: 0
From: Russia
On Forums: 13 years 9 months
Thanks: 24 time(s)
Russian Federation


Register


Thanks:
(1) stub888,
Go to the top of the page
  Insert nick Quick quote
+Quote Post
post Jan 3 2022, 09:55:12
Post #3

добрый мизантроп
**************
Group: Металариец
Posts: 3,015
Releases: 1
From: Менск
On Forums: 11 years 7 months
Thanks: 1337 time(s)
Madagascar


And full preview
Go to the top of the page
  Insert nick Quick quote
+Quote Post

Reply to this topicStart new topic
2 User(s) are reading this topic (2 Guests and 0 Anonymous Users)
0 Members:

 



- Lo-Fi Version Support form
Copyrights and abuse reports form
Time is now: 5th July 2022 - 23:18:27