Welcome Guest ( Log In | Register )

> Releases Upload / Добавление релизов

Добавить релиз тут / Click here to add release
Рекомендованные обменники / Recommended file shares

> Colostomy Bag - Colostomy Bag [ep] (2021), Death Metal
post Dec 26 2021, 18:06:54
Post #1

Правь статус, ####!111
**************
Group: Металариец
Posts: 4,580
Releases: 4215
From: Одесса
On Forums: 13 years 7 months
Thanks: 47002 time(s)
Ukraine


(IMG:http://metalarea.org/images/audiocovers/2021_Dec/acov_tid359926_thumb.jpg)

*Artist: Colostomy Bag
*Album: Colostomy Bag [ep]
*Year: 2021
*Genre: Death Metal
*Country: United States (IMG:http://metalarea.org/forum/style_images/flags/United%20States.png)
*Format: mp3@CBR320kbps
*Size: 33MB

Tracklist:
1. Colostomy Bag 02:00
2. Sixty Year Old Still Missing 03:57
3. 10mm Socket 04:41
4. Blood Orgy 03:29
******************************
Total playing time: 14:07



Technical info
(IMG:http://metalarea.org/images/spectrogram/2021_Dec/0c8403ca843eb654bde79d455391bd70.png)
Input File: 02. Sixty year old still missing.mp3
Channels : 2
Sample Rate : 44100
Precision : 16-bit
Duration : 00:03:57.73 = 10483893 samples = 17829.8 CDDA sectors
File Size : 9.51M
Bit Rate : 320k
Sample Encoding: MPEG audio (layer I, II or III)
Comments :
Title=Sixty year old still missing
Artist=Colostomy Bag
Album=Colostomy Bag (EP)
Tracknumber=2
Year=2021
Genre=22



Register


Go to the top of the page
  Insert nick Quick quote
+Quote Post
 
Start new topic
Replies (1 - 2)
post Dec 28 2021, 16:27:34
Post #2

Group: Подсевший
Posts: 47
Releases: 0
On Forums: 3 years 5 months
Thanks: 11 time(s)
Russian Federation


блин офигительное звучание. назад в 1989
Go to the top of the page
  Insert nick Quick quote
+Quote Post
post Dec 28 2021, 18:53:50
Post #3

:3
**************
Group: Металариец
Posts: 4,790
Releases: 104
From: Novosibirsk
On Forums: 14 years 4 months
Thanks: 3880 time(s)
Russian Federation


Последний трек - (IMG:style_emoticons/default/banana.gif)
Go to the top of the page
  Insert nick Quick quote
+Quote Post

Reply to this topicStart new topic
1 User(s) are reading this topic (1 Guests and 0 Anonymous Users)
0 Members:

 



- Lo-Fi Version Support form
Copyrights and abuse reports form
Time is now: 24th January 2022 - 21:00:20