Welcome Guest ( Log In | Register )

> Hatefrost & Wolfenburg - Tęsknota Przeszłych Czasów [split] (2021), Black Metal | Black Metal (D7)
post Dec 28 2021, 04:34:55
Post #1

Правь статус, ####!111
**************
Group: Металариец
Posts: 4,128
Releases: 2594
On Forums: 12 years 2 weeks
Thanks: 47277 time(s)
Russian Federation


(IMG:https://metalarea.org/images/audiocovers/2021_Dec/acov_tid359959_thumb.jpg)

*Artist: Hatefrost & Wolfenburg
*Album: Tęsknota Przeszłych Czasów [split]
*Year: 2021
*Genre: Black Metal | Black Metal
*Country: Poland (IMG:https://metalarea.org/forum/style_images/flags/Poland.png) | Poland (IMG:https://metalarea.org/forum/style_images/flags/Poland.png)
*Format: mp3@CBR320kbps
*Size: 82MB

Tracklist:
Hatefrost:
1.Intro 01:53
2.Warm Veins in Cold Flesh 07:17
3.Of Frost and Hate (An Ancient Pride Anthem) 07:39
4.Werewolf 02:24
Wolfenburg:
5.Intro 01:30
6.W mocy wilczego archetypu 06:39
7.Ostatni wilk 05:44
8.Tęsknota przeszłych czasów 02:49
******************************
Total playing time: 35:55



Technical info
(IMG:https://metalarea.org/images/spectrogram/2021_Dec/f553271bdbf8a31595fd4ef84c7196f8.png)
Input File: 04. Hatefrost - Werewolf (Absurd Cover).mp3
Channels : 2
Sample Rate : 44100
Precision : 16-bit
Duration : 00:02:24.08 = 6353752 samples = 10805.7 CDDA sectors
File Size : 5.77M
Bit Rate : 320k
Sample Encoding: MPEG audio (layer I, II or III)
Comments :
Title=Werewolf (Absurd Cover)
Artist=Hatefrost
Album=Tęsknota Przeszłych Czasów (Split)
Tracknumber=04
Year=2021
Genre=Black Metal



Register


Go to the top of the page
  Insert nick Quick quote
+Quote Post
 
Start new topic
Replies (1 - 8)
post Dec 29 2021, 14:59:22
Post #2

Два Литра
**
Group: Завсегдатай
Posts: 189
Releases: 2
From: unholy mountains of kozloyobia
On Forums: 15 years 3 months
Thanks: 130 time(s)
Russian Federation


Парни топят за Джейкоба
Go to the top of the page
  Insert nick Quick quote
+Quote Post
post Dec 29 2021, 15:11:24
Post #3

Маньяк
**********
Group: Металариец
Posts: 1,372
Releases: 1
From: Беларусь
On Forums: 14 years 10 months
Thanks: 595 time(s)
Russian Federation


ЦИТАТА(Winterkalte @ Dec 29 2021, 16:59:22) *
Парни топят за Джейкоба

Who is Jacob?
Go to the top of the page
  Insert nick Quick quote
+Quote Post
post Dec 29 2021, 16:38:53
Post #4

Четыре Литра
****
Group: Металариец
Posts: 359
Releases: 0
From: Калуга
On Forums: 4 years 10 months
Thanks: 118 time(s)
Russian Federation



отличный сплит
Go to the top of the page
  Insert nick Quick quote
+Quote Post
post Dec 29 2021, 20:35:55
Post #5

Два Литра
**
Group: Завсегдатай
Posts: 189
Releases: 2
From: unholy mountains of kozloyobia
On Forums: 15 years 3 months
Thanks: 130 time(s)
Russian Federation


ЦИТАТА(Moonshtook @ Dec 29 2021, 19:11:24) *
Who is Jacob?

У них на обложке волки из мегатрушного фильма про жутких вампиров и оборотней "сумерки"


Thanks:
(1) Storky,
Go to the top of the page
  Insert nick Quick quote
+Quote Post
post Dec 29 2021, 21:20:49
Post #6

Ретроград
**************
Group: Металариец
Posts: 5,368
Releases: 211
On Forums: 15 years 5 months
Thanks: 8940 time(s)
Vatican City


ЦИТАТА(Winterkalte @ Dec 29 2021, 22:35:55) *
У них на обложке волки из мегатрушного фильма про жутких вампиров и оборотней "сумерки"

Это фиаско, братан)


Thanks:
Go to the top of the page
  Insert nick Quick quote
+Quote Post
post Jan 9 2022, 20:07:08
Post #7

Маньяк
**********
Group: Металариец
Posts: 1,409
Releases: 343
From: Масква
On Forums: 17 years 1 month
Thanks: 3808 time(s)
Russian Federation


Именно такого польского блэка старого разлива и не хватает последние годы...
Go to the top of the page
  Insert nick Quick quote
+Quote Post
post Jan 14 2022, 21:46:53
Post #8

Ретроград
**************
Group: Металариец
Posts: 5,368
Releases: 211
On Forums: 15 years 5 months
Thanks: 8940 time(s)
Vatican City


Обложку хорошо подобрали, такая же вторичная как и музыка....
Go to the top of the page
  Insert nick Quick quote
+Quote Post
post Aug 23 2022, 02:44:43
Post #9

Group: Подсевший
Posts: 48
Releases: 0
From: Canada
On Forums: 8 years 6 months
Thanks: 53 time(s)
Canada


Register


Thanks:
Go to the top of the page
  Insert nick Quick quote
+Quote Post

Reply to this topicStart new topic
2 User(s) are reading this topic (2 Guests and 0 Anonymous Users)
0 Members:

 



- Lo-Fi Version Support form
Copyrights and abuse reports form
Time is now: 3rd December 2022 - 17:19:45