Welcome Guest ( Log In | Register )

> Releases Upload / Добавление релизов

Добавить релиз тут / Click here to add release
Рекомендованные обменники / Recommended file shares

 
Reply to this topicStart new topic
> Evangelist - Ad Mortem Festinamus (2020), Epic Doom Metal (D5)
post Dec 28 2021, 20:38:21
Post #1

####!111
**************
Group: Металариец
Posts: 4,540
Releases: 138
From: The Mountain Of DOOM
On Forums: 14 years 3 months
Thanks: 6447 time(s)
Russian Federation


(IMG:http://metalarea.org/images/audiocovers/2021_Dec/acov_tid359983_thumb.jpg)

*Artist: Evangelist
*Album: Ad Mortem Festinamus
*Year: 2020
*Genre: Epic Doom Metal
*Country: Poland (IMG:http://metalarea.org/forum/style_images/flags/Poland.png)
*Format: mp3@CBR320kbps
*Size: 87MB

Tracklist:
1. Perceval 07:16
2. Anubis (On the Onyx Throne of Death) 06:16
3. The Puritan 05:51
4. Pale Lady of Mercy 06:18
5. Towards the End 05:06
6. Mystification (Manilla Road cover) 05:29
******************************
Total playing time: 36:16



Technical info
(IMG:http://metalarea.org/images/spectrogram/2021_Dec/36f76bb0c343da93e95ec0fd84c9204c.png)
Input File: 05 Towards the End.mp3
Channels : 2
Sample Rate : 44100
Precision : 16-bit
Duration : 00:05:06.67 = 13524191 samples = 23000.3 CDDA sectors
File Size : 12.5M
Bit Rate : 326k
Sample Encoding: MPEG audio (layer I, II or III)
Comments :
Title=Towards the End
Artist=Evangelist
Album=Ad Mortem Festinamus
Tracknumber=5
Year=2020
Genre=Epic Doom Metal



Register


Go to the top of the page
  Insert nick Quick quote
+Quote Post

Reply to this topicStart new topic
1 User(s) are reading this topic (1 Guests and 0 Anonymous Users)
0 Members:

 



- Lo-Fi Version Support form
Copyrights and abuse reports form
Time is now: 16th January 2022 - 20:39:19