Welcome Guest ( Log In | Register )

> Releases Upload / Добавление релизов

Добавить релиз тут / Click here to add release
Рекомендованные обменники / Recommended file shares

 
Reply to this topicStart new topic
> Warzaw - Black Magic Satellite (2021), Heavy Metal
post Dec 30 2021, 15:09:23
Post #1

Правь статус, ####!111
**************
Group: Металариец
Posts: 28,592
Releases: 20922
From: Г.Харьков
On Forums: 9 years 8 months
Thanks: 427870 time(s)
Unknown


(IMG:https://metalarea.org/images/audiocovers/2021_Dec/acov_tid360034_thumb.jpg)

*Artist: Warzaw
*Album: Black Magic Satellite
*Year: 2021
*Genre: Heavy Metal
*Country: Norway (IMG:https://metalarea.org/forum/style_images/flags/Norway.png)
*Format: mp3@CBR320kbps
*Size: 105MB

Tracklist:
1. Santa Mira 03:59
2. Fierce Attitude 03:51
3. Send My Regards 03:14
4. Lightning from the Clear Sky 04:04
5. Circular Talk 03:46
6. Machine Gun Fire 04:15
7. Where the Bodies Are Buried 03:45
8. Shot of Poison 04:54
9. Pistols of Dawn 03:43
10. Altar of Pleasure 03:43
11. Sabres of Flesh and Blood 05:50
******************************
Total playing time: 45:04



Extended info
Mats Sødahl Drums
Håvard Herjuan Guitars
Trond Jullumstrø Guitars, Bass
Daniel Rønning Vocals


Technical info
(IMG:https://metalarea.org/images/spectrogram/2021_Dec/8876aefb606c1db072c3c0e903f16d4d.png)
Input File: 08 - Shot of Poison.mp3
Channels : 2
Sample Rate : 44100
Precision : 16-bit
Duration : 00:04:53.92 = 12962004 samples = 22044.2 CDDA sectors
File Size : 12.0M
Bit Rate : 326k
Sample Encoding: MPEG audio (layer I, II or III)
Comments :
Title=Shot of Poison
Artist=Warzaw
Album=Black Magic Satellite
Tracknumber=8
Year=2021



Register


Go to the top of the page
  Insert nick Quick quote
+Quote Post

Reply to this topicStart new topic
1 User(s) are reading this topic (1 Guests and 0 Anonymous Users)
0 Members:

 



- Lo-Fi Version Support form
Copyrights and abuse reports form
Time is now: 24th January 2022 - 20:31:06