Welcome Guest ( Log In | Register )

> Holy Grail - Seasons Bleedings [ep] (2011), Heavy Metal (D5)
post Dec 30 2021, 16:30:31
Post #1

Правь статус, 616
**************
Group: Металариец
Posts: 10,376
Releases: 8432
From: 55°35’N 38°08’E
On Forums: 15 years 7 months
Thanks: 149742 time(s)
Russian Federation


(IMG:https://metalarea.org/images/audiocovers/2021_Dec/acov_tid360043_thumb.jpg)

*Artist: Holy Grail
*Album: Seasons Bleedings [ep]
*Year: 2011
*Genre: Heavy Metal
*Country: United States (IMG:https://metalarea.org/forum/style_images/flags/United%20States.png)
*Format: mp3@CBR320kbps
*Size: 47MB

Tracklist:
1. No Presents for Christmas (King Diamond cover) 04:04
2. Kill the King (Rainbow cover) 04:36
3. Exciter (Judas Priest cover) (Bonus Track) 04:11
4. Faster as a Shark (Accept cover) (Bonus Track) 03:45
******************************
Total playing time: 16:36


Spotify

Technical info
(IMG:https://metalarea.org/images/spectrogram/2021_Dec/7f2dfe98eed3f6da5173835b03d2f38f.png)
Input File: 01 No Presents for Christmas (King Diamond cover).mp3
Channels : 2
Sample Rate : 44100
Precision : 16-bit
Duration : 00:04:03.74 = 10748890 samples = 18280.4 CDDA sectors
File Size : 9.85M
Bit Rate : 323k
Sample Encoding: MPEG audio (layer I, II or III)
Comments :
Title=No Presents for Christmas (King Diamond cover)
Artist=Holy Grail
Album=Seasons Bleedings
Tracknumber=1
Year=2011
Genre=Heavy Metal



Register


Go to the top of the page
  Insert nick Quick quote
+Quote Post
 
Start new topic
Replies (1 - 3)
post Dec 31 2021, 15:37:01
Post #2

Маньяк
**********
Group: Металариец
Posts: 1,094
Releases: 934
On Forums: 2 years 10 months
Thanks: 25433 time(s)
United States


Смысл, куда пропал? ровные же релизы были
Go to the top of the page
  Insert nick Quick quote
+Quote Post
post Dec 31 2021, 21:09:51
Post #3

Правь статус, 616
**************
Group: Металариец
Posts: 10,376
Releases: 8432
From: 55°35’N 38°08’E
On Forums: 15 years 7 months
Thanks: 149742 time(s)
Russian Federation


ЦИТАТА(wolfskaiser @ 31st December 2021 - 17:37:01) *
Смысл, куда пропал? ровные же релизы были


Я тут не куда не пропадал. Сейчас совсем нет времени на добавление релизов.


Thanks:
Go to the top of the page
  Insert nick Quick quote
+Quote Post
post Feb 17 2022, 12:58:25
Post #4

Маньяк
**********
Group: Металариец
Posts: 1,026
Releases: 3
From: Симферополь, Республика Крым
On Forums: 16 years 8 months
Thanks: 236 time(s)
Russian Federation


вполне хорошо
Go to the top of the page
  Insert nick Quick quote
+Quote Post

Reply to this topicStart new topic
1 User(s) are reading this topic (1 Guests and 0 Anonymous Users)
0 Members:

 



- Lo-Fi Version Support form
Copyrights and abuse reports form
Time is now: 3rd March 2024 - 07:09:43