Welcome Guest ( Log In | Register )

> Releases Upload / Добавление релизов

Добавить релиз тут / Click here to add release
Рекомендованные обменники / Recommended file shares

 
Reply to this topicStart new topic
> Forced To Rot - Manifestation Of Hate (2021), Groove/Death Metal
post Dec 31 2021, 12:38:09
Post #1

Правь статус, ####!111
**************
Group: Металариец
Posts: 28,506
Releases: 20866
From: Г.Харьков
On Forums: 9 years 8 months
Thanks: 426499 time(s)
Unknown


(IMG:https://metalarea.org/images/audiocovers/2021_Dec/acov_tid360060_thumb.jpg)

*Artist: Forced To Rot
*Album: Manifestation Of Hate
*Year: 2021
*Genre: Groove/Death Metal
*Country: United States (IMG:https://metalarea.org/forum/style_images/flags/United%20States.png)
*Format: mp3@CBR320kbps
*Size: 65MB

Tracklist:
1. Disfigured God 03:28
2. Bleed the Disease 04:06
3. Delusions 03:44
4. Infectiously Spreading Hate 03:31
5. 30 Second Afterlife 05:31
6. Double Bind 04:04
7. Thirteen Knots 03:33
******************************
Total playing time: 27:57




Extended info
Dan Hogg Bass
Joe Bonfield Drums
James Dickey Guitars
Tony Castrucci Guitars
See also: The Vile Doctrine, Machinations of Fate (live), ex-Sicarii, ex-Kingdoms Burn, VOG
David Engle Vocals


Technical info
(IMG:https://metalarea.org/images/spectrogram/2021_Dec/5cefea1c030efa517d480c89ae5c8320.png)
Input File: 05 - 30 Second Afterlife.mp3
Channels : 2
Sample Rate : 44100
Precision : 16-bit
Duration : 00:05:31.28 = 14609316 samples = 24845.8 CDDA sectors
File Size : 13.4M
Bit Rate : 323k
Sample Encoding: MPEG audio (layer I, II or III)
Comments :
Title=30 Second Afterlife
Artist=Forced to Rot
Album=Manifestation of Hate
Tracknumber=5/7
Year=2021



Register


Go to the top of the page
  Insert nick Quick quote
+Quote Post

Reply to this topicStart new topic
1 User(s) are reading this topic (1 Guests and 0 Anonymous Users)
0 Members:

 



- Lo-Fi Version Support form
Copyrights and abuse reports form
Time is now: 16th January 2022 - 20:06:20