Welcome Guest ( Log In | Register )

> Releases Upload / Добавление релизов

Добавить релиз тут / Click here to add release
Рекомендованные обменники / Recommended file shares

 
Reply to this topicStart new topic
> Absolute Zero - Sign Us, You Bastards! [compilation] (2019), Thrash Metal (D4)
post Jan 1 2022, 02:20:57
Post #1

Подвал
**************
Group: Металариец
Posts: 16,681
Releases: 9530
From: Far East (Khabarovsk)
On Forums: 12 years 11 months
Thanks: 109168 time(s)
Russian Federation


(IMG:http://metalarea.org/images/audiocovers/2022_Jan/acov_tid360080_thumb.JPG)

*Artist: Absolute Zero
*Album: Sign Us, You Bastards! [compilation]
*Year: 2019
*Genre: Thrash Metal
*Country: Canada (IMG:http://metalarea.org/forum/style_images/flags/Canada.png)
*Format: mp3@CBR320kbps
*Size: 29MB

Tracklist:
1. Happy To Be 04:28
2. Left Becomes Right 04:58
3. The Metamorph 03:26
******************************
Total playing time: 12:52



Extended info
Originally an industry-only cassette demo that was recorded in the '90s, it was released digitally in 2019 (though the Bandcamp date got listed as December 24, 2017).
Actually this band's name is The Blackcloud Syndicate.


Technical info
(IMG:http://metalarea.org/images/spectrogram/2022_Jan/e382c7ed3b5ae5cadf398aac63843905.png)
Input File: 01-Happy To Be.mp3
Channels : 2
Sample Rate : 44100
Precision : 16-bit
Duration : 00:04:29.05 = 11865237 samples = 20179 CDDA sectors
File Size : 10.8M
Bit Rate : 322k
Sample Encoding: MPEG audio (layer I, II or III)
Comments :
Title=Happy To Be
Artist=Absolute Zero
Album=Sign Us, You Bastards!
Tracknumber=01
Year=2019
Genre=Thrash Metal



Register


Go to the top of the page
  Insert nick Quick quote
+Quote Post

Reply to this topicStart new topic
1 User(s) are reading this topic (1 Guests and 0 Anonymous Users)
0 Members:

 



- Lo-Fi Version Support form
Copyrights and abuse reports form
Time is now: 24th January 2022 - 21:32:44