Welcome Guest ( Log In | Register )

> Chaoagnostic - Endless Vortex (2022), Black Metal
post Jan 5 2022, 10:18:41
Post #1

Group: Подсевший
Posts: 13
Releases: 3
On Forums: 10 months 3 weeks
Thanks: 52 time(s)
NATO


(IMG:http://metalarea.org/images/audiocovers/2022_Jan/acov_tid360178_thumb.jpg)

*Artist: Chaoagnostic
*Album: Endless Vortex
*Year: 2022
*Genre: Black Metal
*Country: Ukraine (IMG:http://metalarea.org/forum/style_images/flags/Ukraine.png)
*Format: mp3@CBR320kbps
*Size: 69MB

Tracklist:
1. Dance of Death
2. Holy Pest
3. Vengeance
4. Endless Vortex
5. Uncanny Valley
6. Dark Blood
7. Night on Bold Mountain
8. End of the Times
******************************
Total playing time: 30:40

Extended info
Recorded at AeroDynamic studio (Kyiv)
Bandcamp:


Technical info
(IMG:http://metalarea.org/images/spectrogram/2022_Jan/175ca1fde033d4d35c9aff8dd057d66b.png)
Input File: 01. Dance of Death.mp3
Channels : 2
Sample Rate : 44100
Precision : 16-bit
Duration : 00:03:42.42 = 9808634 samples = 16681.4 CDDA sectors
File Size : 8.90M
Bit Rate : 320k
Sample Encoding: MPEG audio (layer I, II or III)



Register


Go to the top of the page
  Insert nick Quick quote
+Quote Post
 
Start new topic
Replies (1 - 3)
post Jan 7 2022, 10:47:23
Post #2

Group: Подсевший
Posts: 22
Releases: 0
On Forums: 15 years 4 months
Thanks: 0 time(s)
Russian Federation


QUOTE(Bruxa @ Jan 5 2022, 12:18:41) *
http://metalarea.org/images/audiocovers/20...60178_thumb.jpg

*Artist: Chaoagnostic
*Album: Endless Vortex
*Year: 2022
*Genre: Black Metal
*Country: Ukraine http://metalarea.org/forum/style_images/flags/Ukraine.png
*Format: mp3@CBR320kbps
*Size: 69MB

Tracklist:
1. Dance of Death
2. Holy Pest
3. Vengeance
4. Endless Vortex
5. Uncanny Valley
6. Dark Blood
7. Night on Bold Mountain
8. End of the Times
******************************
Total playing time: 30:40

Extended info
Recorded at AeroDynamic studio (Kyiv)
Bandcamp:


Technical info
http://metalarea.org/images/spectrogram/20...f8dd057d66b.png
Input File: 01. Dance of Death.mp3
Channels : 2
Sample Rate : 44100
Precision : 16-bit
Duration : 00:03:42.42 = 9808634 samples = 16681.4 CDDA sectors
File Size : 8.90M
Bit Rate : 320k
Sample Encoding: MPEG audio (layer I, II or III)



As far as i know - Bruxa is very Hateful coz'
IT IS from black metal superband.
Go to the top of the page
  Insert nick Quick quote
+Quote Post
post Jan 7 2022, 11:01:54
Post #3

Group: Подсевший
Posts: 22
Releases: 0
On Forums: 15 years 4 months
Thanks: 0 time(s)
Russian Federation


QUOTE(UG88 @ Jan 7 2022, 12:47:23) *
As far as i know - Bruxa is very Hateful coz'
IT IS from black metal superband.

Как скоро страждущие могут ждать очередной, не менее Гениальный альбом?
Про сеньора-помидора, про то, что в Степашке (ov СпкнНчМлш) всё неправильно...
Go to the top of the page
  Insert nick Quick quote
+Quote Post
post Jan 15 2022, 08:35:38
Post #4

Group: Дух
Posts: 3
Releases: 0
On Forums: 7 months 1 day
Thanks: 0 time(s)
Brazil


Official Website
Go to the top of the page
  Insert nick Quick quote
+Quote Post

Reply to this topicStart new topic
1 User(s) are reading this topic (1 Guests and 0 Anonymous Users)
0 Members:

 



- Lo-Fi Version Support form
Copyrights and abuse reports form
Time is now: 17th August 2022 - 08:24:46