Welcome Guest ( Log In | Register )

> Releases Upload / Добавление релизов

Добавить релиз тут / Click here to add release
Рекомендованные обменники / Recommended file shares

 
Reply to this topicStart new topic
> Éntomos - Praxis (2022), Progressive Metal/Djent
post Jan 7 2022, 16:44:31
Post #1

Правь статус, ####!111
**************
Group: Металариец
Posts: 28,587
Releases: 20922
From: Г.Харьков
On Forums: 9 years 8 months
Thanks: 427834 time(s)
Unknown


(IMG:https://metalarea.org/images/audiocovers/2022_Jan/acov_tid360266_thumb.jpg)

*Artist: Éntomos
*Album: Praxis
*Year: 2022
*Genre: Progressive Metal/Djent
*Country: Chile (IMG:https://metalarea.org/forum/style_images/flags/Chile.png)
*Format: mp3@CBR320kbps
*Size: 100MB

Tracklist:
1. El Despertar
2. Leviatán
3. El Miserable Poder del Ego
4. Cáncer
5. Hijos del Trastorno
6. Alegorías
7. Quintaesencia
8. Devenir el Sangrar
9. Bios Theoretikós
10. Acta Non Verba
******************************
Total playing time: 43:29



Extended info


Technical info
(IMG:https://metalarea.org/images/spectrogram/2022_Jan/cb4bcba660123248af1ac11948ee816f.png)
Input File: 07 - Quintaesencia.mp3
Channels : 2
Sample Rate : 44100
Precision : 16-bit
Duration : 00:04:15.57 = 11270637 samples = 19167.8 CDDA sectors
File Size : 10.3M
Bit Rate : 322k
Sample Encoding: MPEG audio (layer I, II or III)
Comments :
Title=Quintaesencia
Artist=Éntomos
Album=PRAXIS
Tracknumber=7/10
Year=2022



Register


Thanks:
Go to the top of the page
  Insert nick Quick quote
+Quote Post

Reply to this topicStart new topic
1 User(s) are reading this topic (1 Guests and 0 Anonymous Users)
0 Members:

 



- Lo-Fi Version Support form
Copyrights and abuse reports form
Time is now: 24th January 2022 - 14:25:08