Welcome Guest ( Log In | Register )

> Stangarigel - Na Severe Srdca (2022), Black Metal
post Jan 7 2022, 18:29:36
Post #1

Правь статус, ####!111
**************
Group: Металариец
Posts: 29,275
Releases: 21491
From: Г.Харьков
On Forums: 10 years 1 week
Thanks: 443637 time(s)
Unknown


(IMG:https://metalarea.org/images/audiocovers/2022_Jan/acov_tid360267_thumb.jpg)

*Artist: Stangarigel
*Album: Na Severe Srdca
*Year: 2022
*Genre: Black Metal
*Country: Slovakia (IMG:https://metalarea.org/forum/style_images/flags/Slovakia.png)
*Format: mp3@CBR320kbps
*Size: 84MB

Tracklist:
1. Mytogenéza bronzovej doby 07:19
2. Zasvätenie v slnovratnej hore 05:39
3. Hviezdne ohne nad kosodrevinami 04:37
4. Uzamknutí v brale 02:09
5. Smaragdová koruna diabla 07:56
6. Poklad Tatier 09:03
******************************
Total playing time: 36:43



Extended info
Lesodiv electric & classical guitar, bass, synth
See also: Malokarpatan, Remmirath, ex-Helcaraxe, ex-Lady Reaper
Stalagnat vocals, drums


Technical info
(IMG:https://metalarea.org/images/spectrogram/2022_Jan/fbd9db9998de75328315ffeae2b40771.png)
Input File: 06 - Poklad Tatier.mp3
Channels : 2
Sample Rate : 44100
Precision : 16-bit
Duration : 00:09:03.52 = 23969100 samples = 40763.8 CDDA sectors
File Size : 21.7M
Bit Rate : 320k
Sample Encoding: MPEG audio (layer I, II or III)
Comments :
Title=Poklad Tatier
Artist=Stangarigel
Album=Na Severe Srdca
Tracknumber=6
Year=2022
Genre=Black Metal



Register


Go to the top of the page
  Insert nick Quick quote
+Quote Post
 
Start new topic
Replies (1 - 6)
post Jan 8 2022, 22:14:30
Post #2

кручу наждак
**************
Group: Металариец
Posts: 5,519
Releases: 104
From: Самара
On Forums: 12 years 1 week
Thanks: 4359 time(s)
Russian Federation


Старошкольно, атмосферно, но по большому счету интерес представляет только пара песен, где присутствуют фолковые элементы.
Go to the top of the page
  Insert nick Quick quote
+Quote Post
post Jan 11 2022, 05:10:48
Post #3

Правь статус, ####!111
**************
Group: Металариец
Posts: 50,651
Releases: 931
On Forums: 12 years 11 months
Thanks: 47366 time(s)
Russian Federation


Чот здесь малюсенький какой то фидбэк, в блэкволе народ кипятком писяяца от этого релиза дескать какой он такой растакой великолепный весь из себя прекраасный...
Go to the top of the page
  Insert nick Quick quote
+Quote Post
post Jan 11 2022, 18:15:05
Post #4

for me your flesh
**********
Group: Металариец
Posts: 1,466
Releases: 0
On Forums: 4 years 9 months
Thanks: 1241 time(s)
Unknown


Приятный каноничный релиз. Просто и душевно.
Иллюстрация "Леший" Н.Брута хорошо подходит для обложки.
Go to the top of the page
  Insert nick Quick quote
+Quote Post
post Jan 11 2022, 23:08:06
Post #5

Три Литра
***
Group: Завсегдатай
Posts: 222
Releases: 0
On Forums: 2 years 5 months
Thanks: 13 time(s)
Russian Federation


Может у кого Flac завалялся?


Thanks:
(1) lollol,
Go to the top of the page
  Insert nick Quick quote
+Quote Post
post Jan 14 2022, 18:54:49
Post #6

Три Литра
***
Group: Завсегдатай
Posts: 234
Releases: 0
On Forums: 12 years 5 months
Thanks: 78 time(s)
Russian Federation


Средне, Malokarpatan получше будет
Go to the top of the page
  Insert nick Quick quote
+Quote Post
post Feb 4 2022, 13:06:38
Post #7

Четыре Литра
****
Group: Металариец
Posts: 364
Releases: 1
On Forums: 14 years 1 week
Thanks: 162 time(s)
Russian Federation


Релиз сумел оставить после себя очень хорошие впечатления! Атмосфера и общее звучание как будто что-то очень близкое уже, с уклоном в старую школу. Я вообще заметил, что балканская сцена привлекает к себе все больше внимания и вполне заслуженно на мой взгляд. Уже немало толковых команд оттуда слышал, Kult Perunov например.
Go to the top of the page
  Insert nick Quick quote
+Quote Post

Reply to this topicStart new topic
1 User(s) are reading this topic (1 Guests and 0 Anonymous Users)
0 Members:

 



- Lo-Fi Version Support form
Copyrights and abuse reports form
Time is now: 22nd May 2022 - 15:53:49